  0
SECTION
  2
HEADER
  9
$ACADVER
  1
AC1015
  9
$ACADMAINTVER
 70
     6
  9
$DWGCODEPAGE
  3
ANSI_1252
  9
$INSBASE
 10
0.0
 20
0.0
 30
0.0
  9
$EXTMIN
 10
0.0
 20
0.0
 30
0.0
  9
$EXTMAX
 10
1189.0
 20
841.0
 30
0.0
  9
$LIMMIN
 10
0.0
 20
0.0
  9
$LIMMAX
 10
1189.0
 20
841.0
  9
$ORTHOMODE
 70
     0
  9
$REGENMODE
 70
     1
  9
$FILLMODE
 70
     1
  9
$QTEXTMODE
 70
     0
  9
$MIRRTEXT
 70
     1
  9
$LTSCALE
 40
1.0
  9
$ATTMODE
 70
     1
  9
$TEXTSIZE
 40
2.5
  9
$TRACEWID
 40
1.0
  9
$TEXTSTYLE
  7
Standard
  9
$CLAYER
  8
0
  9
$CELTYPE
  6
ByLayer
  9
$CECOLOR
 62
   256
  9
$CELTSCALE
 40
1.0
  9
$DISPSILH
 70
     0
  9
$DIMSCALE
 40
1.0
  9
$DIMASZ
 40
4.0
  9
$DIMEXO
 40
1.0
  9
$DIMDLI
 40
3.75
  9
$DIMRND
 40
0.0
  9
$DIMDLE
 40
0.0
  9
$DIMEXE
 40
1.0
  9
$DIMTP
 40
0.0
  9
$DIMTM
 40
0.0
  9
$DIMTXT
 40
2.5
  9
$DIMCEN
 40
2.5
  9
$DIMTSZ
 40
0.0
  9
$DIMTOL
 70
     0
  9
$DIMLIM
 70
     0
  9
$DIMTIH
 70
     1
  9
$DIMTOH
 70
     1
  9
$DIMSE1
 70
     0
  9
$DIMSE2
 70
     0
  9
$DIMTAD
 70
     1
  9
$DIMZIN
 70
     0
  9
$DIMBLK
  1

  9
$DIMASO
 70
     1
  9
$DIMSHO
 70
     1
  9
$DIMPOST
  1

  9
$DIMAPOST
  1

  9
$DIMALT
 70
     0
  9
$DIMALTD
 70
     3
  9
$DIMALTF
 40
0.0393700787
  9
$DIMLFAC
 40
2.0
  9
$DIMTOFL
 70
     1
  9
$DIMTVP
 40
0.0
  9
$DIMTIX
 70
     0
  9
$DIMSOXD
 70
     0
  9
$DIMSAH
 70
     0
  9
$DIMBLK1
  1

  9
$DIMBLK2
  1

  9
$DIMSTYLE
  2
ISO-25
  9
$DIMCLRD
 70
     0
  9
$DIMCLRE
 70
     0
  9
$DIMCLRT
 70
     0
  9
$DIMTFAC
 40
1.0
  9
$DIMGAP
 40
1.524
  9
$DIMJUST
 70
     0
  9
$DIMSD1
 70
     0
  9
$DIMSD2
 70
     0
  9
$DIMTOLJ
 70
     0
  9
$DIMTZIN
 70
     0
  9
$DIMALTZ
 70
     0
  9
$DIMALTTZ
 70
     0
  9
$DIMUPT
 70
     0
  9
$DIMDEC
 70
     2
  9
$DIMTDEC
 70
     2
  9
$DIMALTU
 70
     2
  9
$DIMALTTD
 70
     3
  9
$DIMTXSTY
  7
Standard
  9
$DIMAUNIT
 70
     0
  9
$DIMADEC
 70
     2
  9
$DIMALTRND
 40
0.0
  9
$DIMAZIN
 70
     0
  9
$DIMDSEP
 70
    44
  9
$DIMATFIT
 70
     3
  9
$DIMFRAC
 70
     0
  9
$DIMLDRBLK
  1

  9
$DIMLUNIT
 70
     2
  9
$DIMLWD
 70
    -2
  9
$DIMLWE
 70
    -2
  9
$DIMTMOVE
 70
     0
  9
$LUNITS
 70
     2
  9
$LUPREC
 70
     2
  9
$SKETCHINC
 40
1.0
  9
$FILLETRAD
 40
10.0
  9
$AUNITS
 70
     0
  9
$AUPREC
 70
     2
  9
$MENU
  1
.
  9
$ELEVATION
 40
0.0
  9
$PELEVATION
 40
0.0
  9
$THICKNESS
 40
0.0
  9
$LIMCHECK
 70
     0
  9
$CHAMFERA
 40
10.0
  9
$CHAMFERB
 40
10.0
  9
$CHAMFERC
 40
20.0
  9
$CHAMFERD
 40
0.0
  9
$SKPOLY
 70
     0
  9
$TDCREATE
 40
2456917.895911632
  9
$TDUCREATE
 40
2456917.812578299
  9
$TDUPDATE
 40
2456917.895917419
  9
$TDUUPDATE
 40
2456917.812584086
  9
$TDINDWG
 40
0.0000000116
  9
$TDUSRTIMER
 40
0.0000000116
  9
$USRTIMER
 70
     1
  9
$ANGBASE
 50
0.0
  9
$ANGDIR
 70
     0
  9
$PDMODE
 70
     0
  9
$PDSIZE
 40
-1.0
  9
$PLINEWID
 40
0.0
  9
$SPLFRAME
 70
     0
  9
$SPLINETYPE
 70
     6
  9
$SPLINESEGS
 70
     8
  9
$HANDSEED
  5
4DE
  9
$SURFTAB1
 70
     6
  9
$SURFTAB2
 70
     6
  9
$SURFTYPE
 70
     6
  9
$SURFU
 70
     6
  9
$SURFV
 70
     6
  9
$UCSBASE
  2

  9
$UCSNAME
  2

  9
$UCSORG
 10
0.0
 20
0.0
 30
0.0
  9
$UCSXDIR
 10
1.0
 20
0.0
 30
0.0
  9
$UCSYDIR
 10
0.0
 20
1.0
 30
0.0
  9
$UCSORTHOREF
  2

  9
$UCSORTHOVIEW
 70
     0
  9
$UCSORGTOP
 10
0.0
 20
0.0
 30
0.0
  9
$UCSORGBOTTOM
 10
0.0
 20
0.0
 30
0.0
  9
$UCSORGLEFT
 10
0.0
 20
0.0
 30
0.0
  9
$UCSORGRIGHT
 10
0.0
 20
0.0
 30
0.0
  9
$UCSORGFRONT
 10
0.0
 20
0.0
 30
0.0
  9
$UCSORGBACK
 10
0.0
 20
0.0
 30
0.0
  9
$PUCSBASE
  2

  9
$PUCSNAME
  2

  9
$PUCSORG
 10
0.0
 20
0.0
 30
0.0
  9
$PUCSXDIR
 10
1.0
 20
0.0
 30
0.0
  9
$PUCSYDIR
 10
0.0
 20
1.0
 30
0.0
  9
$PUCSORTHOREF
  2

  9
$PUCSORTHOVIEW
 70
     0
  9
$PUCSORGTOP
 10
0.0
 20
0.0
 30
0.0
  9
$PUCSORGBOTTOM
 10
0.0
 20
0.0
 30
0.0
  9
$PUCSORGLEFT
 10
0.0
 20
0.0
 30
0.0
  9
$PUCSORGRIGHT
 10
0.0
 20
0.0
 30
0.0
  9
$PUCSORGFRONT
 10
0.0
 20
0.0
 30
0.0
  9
$PUCSORGBACK
 10
0.0
 20
0.0
 30
0.0
  9
$USERI1
 70
     0
  9
$USERI2
 70
     0
  9
$USERI3
 70
     0
  9
$USERI4
 70
     0
  9
$USERI5
 70
     0
  9
$USERR1
 40
0.0
  9
$USERR2
 40
0.0
  9
$USERR3
 40
0.0
  9
$USERR4
 40
0.0
  9
$USERR5
 40
0.0
  9
$WORLDVIEW
 70
     1
  9
$SHADEDGE
 70
     3
  9
$SHADEDIF
 70
    70
  9
$TILEMODE
 70
     1
  9
$MAXACTVP
 70
    64
  9
$PINSBASE
 10
0.0
 20
0.0
 30
0.0
  9
$PLIMCHECK
 70
     0
  9
$PEXTMIN
 10
1.0000000000E+20
 20
1.0000000000E+20
 30
1.0000000000E+20
  9
$PEXTMAX
 10
-1.0000000000E+20
 20
-1.0000000000E+20
 30
-1.0000000000E+20
  9
$PLIMMIN
 10
0.0
 20
0.0
  9
$PLIMMAX
 10
420.0
 20
297.0
  9
$UNITMODE
 70
     0
  9
$VISRETAIN
 70
     1
  9
$PLINEGEN
 70
     0
  9
$PSLTSCALE
 70
     1
  9
$TREEDEPTH
 70
  3020
  9
$CMLSTYLE
  2
Standard
  9
$CMLJUST
 70
     0
  9
$CMLSCALE
 40
20.0
  9
$PROXYGRAPHICS
 70
     1
  9
$MEASUREMENT
 70
     1
  9
$CELWEIGHT
370
    -1
  9
$ENDCAPS
280
     0
  9
$JOINSTYLE
280
     0
  9
$LWDISPLAY
290
     1
  9
$INSUNITS
 70
     4
  9
$HYPERLINKBASE
  1

  9
$STYLESHEET
  1

  9
$XEDIT
290
     1
  9
$CEPSNTYPE
380
     0
  9
$PSTYLEMODE
290
     1
  9
$FINGERPRINTGUID
  2
{99F09DCA-322D-4FC4-8B76-F641B87E939C}
  9
$VERSIONGUID
  2
{FAEB1C32-E019-11D5-929B-00C0DF256EC4}
  9
$EXTNAMES
290
     1
  9
$PSVPSCALE
 40
0.0
  9
$OLESTARTUP
290
     0
  0
ENDSEC
  0
SECTION
  2
CLASSES
  0
CLASS
  1
ACDBDICTIONARYWDFLT
  2
AcDbDictionaryWithDefault
  3
ObjectDBX Classes
 90
        0
280
     0
281
     0
  0
CLASS
  1
VISUALSTYLE
  2
AcDbVisualStyle
  3
ObjectDBX Classes
 90
     4095
280
     0
281
     0
  0
CLASS
  1
MATERIAL
  2
AcDbMaterial
  3
ObjectDBX Classes
 90
     1153
280
     0
281
     0
  0
CLASS
  1
ACDBPLACEHOLDER
  2
AcDbPlaceHolder
  3
ObjectDBX Classes
 90
        0
280
     0
281
     0
  0
CLASS
  1
LAYOUT
  2
AcDbLayout
  3
ObjectDBX Classes
 90
        0
280
     0
281
     0
  0
ENDSEC
  0
SECTION
  2
TABLES
  0
TABLE
  2
VPORT
  5
8
330
0
100
AcDbSymbolTable
 70
     1
  0
VPORT
  5
29
330
8
100
AcDbSymbolTableRecord
100
AcDbViewportTableRecord
  2
*Active
 70
     0
 10
0.0
 20
0.0
 11
1.0
 21
1.0
 12
594.5
 22
420.5
 13
0.0
 23
0.0
 14
10.0
 24
10.0
 15
10.0
 25
10.0
 16
0.0
 26
0.0
 36
1.0
 17
0.0
 27
0.0
 37
0.0
 40
841.0
 41
1.4137931034
 42
50.0
 43
0.0
 44
0.0
 50
0.0
 51
0.0
 71
     0
 72
  2000
 73
     1
 74
     3
 75
     0
 76
     0
 77
     0
 78
     0
281
     0
 65
     1
110
0.0
120
0.0
130
0.0
111
1.0
121
0.0
131
0.0
112
0.0
122
1.0
132
0.0
 79
     0
146
0.0
  0
ENDTAB
  0
TABLE
  2
LTYPE
  5
5
330
0
100
AcDbSymbolTable
 70
     6
  0
LTYPE
  5
14
330
5
100
AcDbSymbolTableRecord
100
AcDbLinetypeTableRecord
  2
ByBlock
 70
     0
  3

 72
    65
 73
     0
 40
0.0
  0
LTYPE
  5
15
330
5
100
AcDbSymbolTableRecord
100
AcDbLinetypeTableRecord
  2
ByLayer
 70
     0
  3

 72
    65
 73
     0
 40
0.0
  0
LTYPE
  5
16
330
5
100
AcDbSymbolTableRecord
100
AcDbLinetypeTableRecord
  2
Continuous
 70
     0
  3
Solid line
 72
    65
 73
     0
 40
0.0
  0
LTYPE
  5
3F
330
5
100
AcDbSymbolTableRecord
100
AcDbLinetypeTableRecord
  2
HIDDEN
 70
     0
  3
Hidden __ __ __ __ __ __ __ __ __ __ __ __ __ __
 72
    65
 73
     2
 40
1.905
 49
1.27
 74
     0
 49
-0.635
 74
     0
  0
LTYPE
  5
40
330
5
100
AcDbSymbolTableRecord
100
AcDbLinetypeTableRecord
  2
PHANTOM
 70
     0
  3
Phantom ______  __  __  ______  __  __  ______
 72
    65
 73
     6
 40
12.7
 49
6.35
 74
     0
 49
-1.27
 74
     0
 49
1.27
 74
     0
 49
-1.27
 74
     0
 49
1.27
 74
     0
 49
-1.27
 74
     0
  0
LTYPE
  5
41
330
5
100
AcDbSymbolTableRecord
100
AcDbLinetypeTableRecord
  2
CENTER
 70
     0
  3
Center ____ _ ____ _ ____ _ ____ _ ____ _ ____
 72
    65
 73
     4
 40
10.16
 49
6.35
 74
     0
 49
-1.27
 74
     0
 49
1.27
 74
     0
 49
-1.27
 74
     0
  0
LTYPE
  5
42
330
5
100
AcDbSymbolTableRecord
100
AcDbLinetypeTableRecord
  2
CENTERX2
 70
     0
  3
Center (2x) ________  __  ________  __  _____
 72
    65
 73
     4
 40
20.32
 49
12.7
 74
     0
 49
-2.54
 74
     0
 49
2.54
 74
     0
 49
-2.54
 74
     0
  0
LTYPE
  5
43
330
5
100
AcDbSymbolTableRecord
100
AcDbLinetypeTableRecord
  2
DOT2
 70
     0
  3
Dot (.5x) ........................................
 72
    65
 73
     2
 40
0.635
 49
0.0
 74
     0
 49
-0.635
 74
     0
  0
ENDTAB
  0
TABLE
  2
LAYER
  5
2
330
0
100
AcDbSymbolTable
 70
     2
  0
LAYER
  5
10
330
2
100
AcDbSymbolTableRecord
100
AcDbLayerTableRecord
  2
0
 70
     0
 62
     7
  6
Continuous
370
    -3
390
F
  0
LAYER
  5
44
330
2
100
AcDbSymbolTableRecord
100
AcDbLayerTableRecord
  2
SLD-0
 70
     0
 62
   179
  6
Continuous
370
    -3
390
F
  0
ENDTAB
  0
TABLE
  2
STYLE
  5
3
330
0
100
AcDbSymbolTable
 70
     3
  0
STYLE
  5
11
330
3
100
AcDbSymbolTableRecord
100
AcDbTextStyleTableRecord
  2
Standard
 70
     0
 40
0.0
 41
1.0
 50
0.0
 71
     0
 42
2.5
  3
txt
  4

  0
STYLE
  5
65
330
3
100
AcDbSymbolTableRecord
100
AcDbTextStyleTableRecord
  2
SLDTEXTSTYLE0
 70
     0
 40
0.0
 41
0.605
 50
0.0
 71
     0
 42
0.2
  3
TXT
  4

  0
STYLE
  5
264
330
3
100
AcDbSymbolTableRecord
100
AcDbTextStyleTableRecord
  2
SLDTEXTSTYLE1
 70
     0
 40
0.0
 41
0.57
 50
0.0
 71
     0
 42
0.2
  3
TXT
  4

  0
ENDTAB
  0
TABLE
  2
VIEW
  5
6
330
0
100
AcDbSymbolTable
 70
     0
  0
ENDTAB
  0
TABLE
  2
UCS
  5
7
330
0
100
AcDbSymbolTable
 70
     0
  0
ENDTAB
  0
TABLE
  2
APPID
  5
9
330
0
100
AcDbSymbolTable
 70
     1
  0
APPID
  5
12
330
9
100
AcDbSymbolTableRecord
100
AcDbRegAppTableRecord
  2
ACAD
 70
     0
  0
ENDTAB
  0
TABLE
  2
DIMSTYLE
  5
A
330
0
100
AcDbSymbolTable
 70
     7
100
AcDbDimStyleTable
  0
DIMSTYLE
105
27
330
A
100
AcDbSymbolTableRecord
100
AcDbDimStyleTableRecord
  2
ISO-25
 70
     0
 41
2.5
 42
0.625
 43
3.75
 44
1.25
 73
     0
 74
     0
 77
     1
 78
     8
140
2.5
141
2.5
143
0.0393700787
147
0.625
171
     3
172
     1
178
     0
271
     2
272
     2
274
     3
278
    44
283
     0
284
     8
340
11
  0
DIMSTYLE
105
85
330
A
100
AcDbSymbolTableRecord
100
AcDbDimStyleTableRecord
  2
SLDDIMSTYLE0
 70
     0
 41
1.2
 44
0.0
 45
0.000000001
140
0.0
146
1.2
147
0.0
173
     1
178
     0
271
     0
272
     0
276
     2
340
11
341
86
343
86
344
86
  0
DIMSTYLE
105
203
102
{ACAD_REACTORS
330
202
102
}
330
A
100
AcDbSymbolTableRecord
100
AcDbDimStyleTableRecord
  2
SLDDIMSTYLE1
 70
     0
 41
4.0
 44
0.0
 45
0.000000001
 73
     0
 74
     0
 77
     1
 78
    12
 79
     3
140
2.5
147
0.625
173
     1
178
     0
271
     0
272
     2
276
     2
284
    12
340
65
  0
DIMSTYLE
105
20E
102
{ACAD_REACTORS
330
20D
102
}
330
A
100
AcDbSymbolTableRecord
100
AcDbDimStyleTableRecord
  2
SLDDIMSTYLE2
 70
     0
 41
4.0
 44
0.0
 45
0.000000001
 73
     0
 74
     0
 77
     1
 78
    12
 79
     3
140
2.5
147
0.625
173
     1
178
     0
271
     2
272
     2
276
     2
284
    12
340
65
  0
DIMSTYLE
105
227
102
{ACAD_REACTORS
330
226
330
233
330
23F
330
24B
330
276
330
282
330
28E
330
29A
102
}
330
A
100
AcDbSymbolTableRecord
100
AcDbDimStyleTableRecord
  2
SLDDIMSTYLE3
 70
     0
 41
4.0
 44
0.0
 45
0.000000001
 73
     0
 74
     0
 77
     1
 78
    12
 79
     3
140
2.5
147
0.625
172
     1
173
     1
178
     0
271
     1
272
     2
276
     2
284
    12
289
     0
340
65
  0
DIMSTYLE
105
258
102
{ACAD_REACTORS
330
257
102
}
330
A
100
AcDbSymbolTableRecord
100
AcDbDimStyleTableRecord
  2
SLDDIMSTYLE4
 70
     0
 41
4.0
 44
0.0
 45
0.000000001
 73
     0
 74
     0
 77
     1
 78
    12
 79
     3
140
2.5
147
0.625
172
     1
173
     1
178
     0
271
     2
272
     2
276
     2
284
    12
289
     0
340
65
  0
DIMSTYLE
105
322
102
{ACAD_REACTORS
330
321
330
32F
102
}
330
A
100
AcDbSymbolTableRecord
100
AcDbDimStyleTableRecord
  2
SLDDIMSTYLE5
 70
     0
 41
4.0
 44
0.0
 45
0.000000001
 78
    12
 79
     3
140
2.5
141
0.0
147
0.625
172
     1
173
     1
178
     0
271
     2
272
     2
276
     2
284
    12
340
65
341
323
343
323
  0
ENDTAB
  0
TABLE
  2
BLOCK_RECORD
  5
1
330
0
100
AcDbSymbolTable
 70
    62
  0
BLOCK_RECORD
  5
1F
330
1
100
AcDbSymbolTableRecord
100
AcDbBlockTableRecord
  2
*Model_Space
340
22
  0
BLOCK_RECORD
  5
1B
330
1
100
AcDbSymbolTableRecord
100
AcDbBlockTableRecord
  2
*Paper_Space
340
1E
  0
BLOCK_RECORD
  5
23
330
1
100
AcDbSymbolTableRecord
100
AcDbBlockTableRecord
  2
*Paper_Space0
340
26
  0
BLOCK_RECORD
  5
7F
330
1
100
AcDbSymbolTableRecord
100
AcDbBlockTableRecord
  2
SW_NOTE_0
340
0
102
{BLKREFS
331
84
102
}
  0
BLOCK_RECORD
  5
86
330
1
100
AcDbSymbolTableRecord
100
AcDbBlockTableRecord
  2
_DOT
340
0
  0
BLOCK_RECORD
  5
8F
330
1
100
AcDbSymbolTableRecord
100
AcDbBlockTableRecord
  2
SW_NOTE_1
340
0
102
{BLKREFS
331
93
102
}
  0
BLOCK_RECORD
  5
C2
330
1
100
AcDbSymbolTableRecord
100
AcDbBlockTableRecord
  2
SW_NOTE_2
340
0
102
{BLKREFS
331
C7
102
}
  0
BLOCK_RECORD
  5
C9
330
1
100
AcDbSymbolTableRecord
100
AcDbBlockTableRecord
  2
SW_NOTE_3
340
0
102
{BLKREFS
331
CD
102
}
  0
BLOCK_RECORD
  5
D8
330
1
100
AcDbSymbolTableRecord
100
AcDbBlockTableRecord
  2
SW_NOTE_4
340
0
102
{BLKREFS
331
DD
102
}
  0
BLOCK_RECORD
  5
DF
330
1
100
AcDbSymbolTableRecord
100
AcDbBlockTableRecord
  2
SW_NOTE_5
340
0
102
{BLKREFS
331
E3
102
}
  0
BLOCK_RECORD
  5
F4
330
1
100
AcDbSymbolTableRecord
100
AcDbBlockTableRecord
  2
SW_NOTE_6
340
0
102
{BLKREFS
331
F8
102
}
  0
BLOCK_RECORD
  5
FA
330
1
100
AcDbSymbolTableRecord
100
AcDbBlockTableRecord
  2
SW_NOTE_7
340
0
102
{BLKREFS
331
FF
102
}
  0
BLOCK_RECORD
  5
148
330
1
100
AcDbSymbolTableRecord
100
AcDbBlockTableRecord
  2
SW_NOTE_8
340
0
102
{BLKREFS
331
14D
102
}
  0
BLOCK_RECORD
  5
14F
330
1
100
AcDbSymbolTableRecord
100
AcDbBlockTableRecord
  2
SW_NOTE_9
340
0
102
{BLKREFS
331
153
102
}
  0
BLOCK_RECORD
  5
184
330
1
100
AcDbSymbolTableRecord
100
AcDbBlockTableRecord
  2
SW_NOTE_10
340
0
102
{BLKREFS
331
189
102
}
  0
BLOCK_RECORD
  5
18B
330
1
100
AcDbSymbolTableRecord
100
AcDbBlockTableRecord
  2
SW_NOTE_11
340
0
102
{BLKREFS
331
18F
102
}
  0
BLOCK_RECORD
  5
1AB
330
1
100
AcDbSymbolTableRecord
100
AcDbBlockTableRecord
  2
SW_NOTE_12
340
0
102
{BLKREFS
331
1B0
102
}
  0
BLOCK_RECORD
  5
1B2
330
1
100
AcDbSymbolTableRecord
100
AcDbBlockTableRecord
  2
SW_NOTE_13
340
0
102
{BLKREFS
331
1B6
102
}
  0
BLOCK_RECORD
  5
1BD
330
1
100
AcDbSymbolTableRecord
100
AcDbBlockTableRecord
  2
SW_NOTE_14
340
0
102
{BLKREFS
331
1C2
102
}
  0
BLOCK_RECORD
  5
1C4
330
1
100
AcDbSymbolTableRecord
100
AcDbBlockTableRecord
  2
SW_NOTE_15
340
0
102
{BLKREFS
331
1C8
102
}
  0
BLOCK_RECORD
  5
204
330
1
100
AcDbSymbolTableRecord
100
AcDbBlockTableRecord
  2
_D
340
0
  0
BLOCK_RECORD
  5
20F
330
1
100
AcDbSymbolTableRecord
100
AcDbBlockTableRecord
  2
_D_1
340
0
  0
BLOCK_RECORD
  5
228
330
1
100
AcDbSymbolTableRecord
100
AcDbBlockTableRecord
  2
_D_2
340
0
  0
BLOCK_RECORD
  5
234
330
1
100
AcDbSymbolTableRecord
100
AcDbBlockTableRecord
  2
_D_3
340
0
  0
BLOCK_RECORD
  5
240
330
1
100
AcDbSymbolTableRecord
100
AcDbBlockTableRecord
  2
_D_4
340
0
  0
BLOCK_RECORD
  5
24C
330
1
100
AcDbSymbolTableRecord
100
AcDbBlockTableRecord
  2
_D_5
340
0
  0
BLOCK_RECORD
  5
259
330
1
100
AcDbSymbolTableRecord
100
AcDbBlockTableRecord
  2
_D_6
340
0
  0
BLOCK_RECORD
  5
277
330
1
100
AcDbSymbolTableRecord
100
AcDbBlockTableRecord
  2
_D_7
340
0
  0
BLOCK_RECORD
  5
283
330
1
100
AcDbSymbolTableRecord
100
AcDbBlockTableRecord
  2
_D_8
340
0
  0
BLOCK_RECORD
  5
28F
330
1
100
AcDbSymbolTableRecord
100
AcDbBlockTableRecord
  2
_D_9
340
0
  0
BLOCK_RECORD
  5
29B
330
1
100
AcDbSymbolTableRecord
100
AcDbBlockTableRecord
  2
_D_10
340
0
  0
BLOCK_RECORD
  5
2BF
330
1
100
AcDbSymbolTableRecord
100
AcDbBlockTableRecord
  2
SW_NOTE_16
340
0
102
{BLKREFS
331
2C4
102
}
  0
BLOCK_RECORD
  5
2C6
330
1
100
AcDbSymbolTableRecord
100
AcDbBlockTableRecord
  2
SW_NOTE_17
340
0
102
{BLKREFS
331
2CA
102
}
  0
BLOCK_RECORD
  5
2D5
330
1
100
AcDbSymbolTableRecord
100
AcDbBlockTableRecord
  2
SW_NOTE_18
340
0
102
{BLKREFS
331
2DA
102
}
  0
BLOCK_RECORD
  5
2DC
330
1
100
AcDbSymbolTableRecord
100
AcDbBlockTableRecord
  2
SW_NOTE_19
340
0
102
{BLKREFS
331
2E0
102
}
  0
BLOCK_RECORD
  5
2F0
330
1
100
AcDbSymbolTableRecord
100
AcDbBlockTableRecord
  2
SW_NOTE_20
340
0
102
{BLKREFS
331
2F5
102
}
  0
BLOCK_RECORD
  5
2F7
330
1
100
AcDbSymbolTableRecord
100
AcDbBlockTableRecord
  2
SW_NOTE_21
340
0
102
{BLKREFS
331
2FB
102
}
  0
BLOCK_RECORD
  5
301
330
1
100
AcDbSymbolTableRecord
100
AcDbBlockTableRecord
  2
SW_NOTE_22
340
0
102
{BLKREFS
331
306
102
}
  0
BLOCK_RECORD
  5
308
330
1
100
AcDbSymbolTableRecord
100
AcDbBlockTableRecord
  2
SW_NOTE_23
340
0
102
{BLKREFS
331
30C
102
}
  0
BLOCK_RECORD
  5
312
330
1
100
AcDbSymbolTableRecord
100
AcDbBlockTableRecord
  2
SW_NOTE_24
340
0
102
{BLKREFS
331
317
102
}
  0
BLOCK_RECORD
  5
319
330
1
100
AcDbSymbolTableRecord
100
AcDbBlockTableRecord
  2
SW_NOTE_25
340
0
102
{BLKREFS
331
31D
102
}
  0
BLOCK_RECORD
  5
323
330
1
100
AcDbSymbolTableRecord
100
AcDbBlockTableRecord
  2
_NONE
340
0
  0
BLOCK_RECORD
  5
326
330
1
100
AcDbSymbolTableRecord
100
AcDbBlockTableRecord
  2
_D_11
340
0
  0
BLOCK_RECORD
  5
330
330
1
100
AcDbSymbolTableRecord
100
AcDbBlockTableRecord
  2
_D_12
340
0
  0
BLOCK_RECORD
  5
339
330
1
100
AcDbSymbolTableRecord
100
AcDbBlockTableRecord
  2
SW_NOTE_26
340
0
102
{BLKREFS
331
33E
102
}
  0
BLOCK_RECORD
  5
340
330
1
100
AcDbSymbolTableRecord
100
AcDbBlockTableRecord
  2
SW_NOTE_27
340
0
102
{BLKREFS
331
344
102
}
  0
BLOCK_RECORD
  5
356
330
1
100
AcDbSymbolTableRecord
100
AcDbBlockTableRecord
  2
SW_NOTE_28
340
0
102
{BLKREFS
331
35B
102
}
  0
BLOCK_RECORD
  5
35D
330
1
100
AcDbSymbolTableRecord
100
AcDbBlockTableRecord
  2
SW_NOTE_29
340
0
102
{BLKREFS
331
361
102
}
  0
BLOCK_RECORD
  5
371
330
1
100
AcDbSymbolTableRecord
100
AcDbBlockTableRecord
  2
SW_NOTE_30
340
0
102
{BLKREFS
331
376
102
}
  0
BLOCK_RECORD
  5
378
330
1
100
AcDbSymbolTableRecord
100
AcDbBlockTableRecord
  2
SW_NOTE_31
340
0
102
{BLKREFS
331
37C
102
}
  0
BLOCK_RECORD
  5
392
330
1
100
AcDbSymbolTableRecord
100
AcDbBlockTableRecord
  2
SW_NOTE_32
340
0
102
{BLKREFS
331
397
102
}
  0
BLOCK_RECORD
  5
399
330
1
100
AcDbSymbolTableRecord
100
AcDbBlockTableRecord
  2
SW_NOTE_33
340
0
102
{BLKREFS
331
39D
102
}
  0
BLOCK_RECORD
  5
3DA
330
1
100
AcDbSymbolTableRecord
100
AcDbBlockTableRecord
  2
SW_NOTE_34
340
0
102
{BLKREFS
331
3DF
102
}
  0
BLOCK_RECORD
  5
3E1
330
1
100
AcDbSymbolTableRecord
100
AcDbBlockTableRecord
  2
SW_NOTE_35
340
0
102
{BLKREFS
331
3E5
102
}
  0
BLOCK_RECORD
  5
3EF
330
1
100
AcDbSymbolTableRecord
100
AcDbBlockTableRecord
  2
SW_NOTE_36
340
0
102
{BLKREFS
331
3F4
102
}
  0
BLOCK_RECORD
  5
3F6
330
1
100
AcDbSymbolTableRecord
100
AcDbBlockTableRecord
  2
SW_NOTE_37
340
0
102
{BLKREFS
331
3FA
102
}
  0
BLOCK_RECORD
  5
418
330
1
100
AcDbSymbolTableRecord
100
AcDbBlockTableRecord
  2
SW_NOTE_38
340
0
102
{BLKREFS
331
41D
102
}
  0
BLOCK_RECORD
  5
41F
330
1
100
AcDbSymbolTableRecord
100
AcDbBlockTableRecord
  2
SW_NOTE_39
340
0
102
{BLKREFS
331
423
102
}
  0
BLOCK_RECORD
  5
434
330
1
100
AcDbSymbolTableRecord
100
AcDbBlockTableRecord
  2
SW_NOTE_40
340
0
102
{BLKREFS
331
439
102
}
  0
BLOCK_RECORD
  5
43B
330
1
100
AcDbSymbolTableRecord
100
AcDbBlockTableRecord
  2
SW_NOTE_41
340
0
102
{BLKREFS
331
43F
102
}
  0
BLOCK_RECORD
  5
455
330
1
100
AcDbSymbolTableRecord
100
AcDbBlockTableRecord
  2
SW_NOTE_42
340
0
102
{BLKREFS
331
45A
102
}
  0
BLOCK_RECORD
  5
45C
330
1
100
AcDbSymbolTableRecord
100
AcDbBlockTableRecord
  2
SW_NOTE_43
340
0
102
{BLKREFS
331
460
102
}
  0
BLOCK_RECORD
  5
4D1
330
1
100
AcDbSymbolTableRecord
100
AcDbBlockTableRecord
  2
SW_NOTE_44
340
0
102
{BLKREFS
331
4D5
102
}
  0
BLOCK_RECORD
  5
4D7
330
1
100
AcDbSymbolTableRecord
100
AcDbBlockTableRecord
  2
SW_NOTE_45
340
0
102
{BLKREFS
331
4DC
102
}
  0
ENDTAB
  0
ENDSEC
  0
SECTION
  2
BLOCKS
  0
BLOCK
  5
20
330
1F
100
AcDbEntity
  8
0
100
AcDbBlockBegin
  2
*Model_Space
 70
     0
 10
0.0
 20
0.0
 30
0.0
  3
*Model_Space
  1

  0
ENDBLK
  5
21
330
1F
100
AcDbEntity
  8
0
100
AcDbBlockEnd
  0
BLOCK
  5
1C
330
1B
100
AcDbEntity
 67
     1
  8
0
100
AcDbBlockBegin
  2
*Paper_Space
 70
     0
 10
0.0
 20
0.0
 30
0.0
  3
*Paper_Space
  1

  0
ENDBLK
  5
1D
330
1B
100
AcDbEntity
 67
     1
  8
0
100
AcDbBlockEnd
  0
BLOCK
  5
24
330
23
100
AcDbEntity
  8
0
100
AcDbBlockBegin
  2
*Paper_Space0
 70
     0
 10
0.0
 20
0.0
 30
0.0
  3
*Paper_Space0
  1

  0
ENDBLK
  5
25
330
23
100
AcDbEntity
  8
0
100
AcDbBlockEnd
  0
BLOCK
  5
80
330
7F
100
AcDbEntity
  8
0
100
AcDbBlockBegin
  2
SW_NOTE_0
 70
     0
 10
0.0
 20
0.0
 30
0.0
  3
SW_NOTE_0
  1

  0
CIRCLE
  5
82
330
7F
100
AcDbEntity
  8
SLD-0
 62
     0
100
AcDbCircle
 10
-9.1126254513
 20
-3.2462150354
 30
0.0
 40
9.673564734433748
  0
MTEXT
  5
83
330
7F
100
AcDbEntity
  8
SLD-0
 62
     0
100
AcDbMText
 10
-9.107764387
 20
-1.3216761443
 30
0.0
 40
3.5
 41
0.0
 71
     2
 72
     1
  1
WJ1
  7
SLDTEXTSTYLE0
 73
     1
 44
1.0
  0
ENDBLK
  5
81
330
7F
100
AcDbEntity
  8
0
100
AcDbBlockEnd
  0
BLOCK
  5
87
330
86
100
AcDbEntity
  8
0
100
AcDbBlockBegin
  2
_DOT
 70
     0
 10
0.0
 20
0.0
 30
0.0
  3
_DOT
  1

  0
POLYLINE
  5
89
330
86
100
AcDbEntity
  8
0
  6
ByBlock
 62
     0
100
AcDb2dPolyline
 66
     1
 10
0.0
 20
0.0
 30
0.0
 70
     1
 40
0.5
 41
0.5
  0
VERTEX
  5
8B
330
89
100
AcDbEntity
  8
0
  6
ByBlock
 62
     0
100
AcDbVertex
100
AcDb2dVertex
 10
-0.25
 20
0.0
 30
0.0
 42
1.0
  0
VERTEX
  5
8C
330
89
100
AcDbEntity
  8
0
  6
ByBlock
 62
     0
100
AcDbVertex
100
AcDb2dVertex
 10
0.25
 20
0.0
 30
0.0
 42
1.0
  0
SEQEND
  5
8D
330
89
100
AcDbEntity
  8
0
  6
ByBlock
 62
     0
  0
LINE
  5
8A
330
86
100
AcDbEntity
  8
0
  6
ByBlock
 62
     0
370
    -2
100
AcDbLine
 10
-0.5
 20
0.0
 30
0.0
 11
-1.0
 21
0.0
 31
0.0
  0
ENDBLK
  5
88
330
86
100
AcDbEntity
  8
0
100
AcDbBlockEnd
  0
BLOCK
  5
90
330
8F
100
AcDbEntity
  8
0
100
AcDbBlockBegin
  2
SW_NOTE_1
 70
     0
 10
0.0
 20
0.0
 30
0.0
  3
SW_NOTE_1
  1

  0
MTEXT
  5
92
330
8F
100
AcDbEntity
  8
SLD-0
 62
     0
100
AcDbMText
 10
-12.2013735056
 20
1.8184525562
 30
0.0
 40
3.5
 41
0.0
 71
     2
 72
     1
  1
CTP 3 mm
  7
SLDTEXTSTYLE0
 73
     1
 44
1.0
  0
ENDBLK
  5
91
330
8F
100
AcDbEntity
  8
0
100
AcDbBlockEnd
  0
BLOCK
  5
C3
330
C2
100
AcDbEntity
  8
0
100
AcDbBlockBegin
  2
SW_NOTE_2
 70
     0
 10
0.0
 20
0.0
 30
0.0
  3
SW_NOTE_2
  1

  0
CIRCLE
  5
C5
330
C2
100
AcDbEntity
  8
SLD-0
 62
     0
100
AcDbCircle
 10
-9.3758053574
 20
-2.381623096
 30
0.0
 40
9.673564734433748
  0
MTEXT
  5
C6
330
C2
100
AcDbEntity
  8
SLD-0
 62
     0
100
AcDbMText
 10
-9.3709442931
 20
-0.457084205
 30
0.0
 40
3.5
 41
0.0
 71
     2
 72
     1
  1
WJ2
  7
SLDTEXTSTYLE0
 73
     1
 44
1.0
  0
ENDBLK
  5
C4
330
C2
100
AcDbEntity
  8
0
100
AcDbBlockEnd
  0
BLOCK
  5
CA
330
C9
100
AcDbEntity
  8
0
100
AcDbBlockBegin
  2
SW_NOTE_3
 70
     0
 10
0.0
 20
0.0
 30
0.0
  3
SW_NOTE_3
  1

  0
MTEXT
  5
CC
330
C9
100
AcDbEntity
  8
SLD-0
 62
     0
100
AcDbMText
 10
-12.1531183253
 20
1.8586039871
 30
0.0
 40
3.5
 41
0.0
 71
     2
 72
     1
  1
CTP 3 mm
  7
SLDTEXTSTYLE0
 73
     1
 44
1.0
  0
ENDBLK
  5
CB
330
C9
100
AcDbEntity
  8
0
100
AcDbBlockEnd
  0
BLOCK
  5
D9
330
D8
100
AcDbEntity
  8
0
100
AcDbBlockBegin
  2
SW_NOTE_4
 70
     0
 10
0.0
 20
0.0
 30
0.0
  3
SW_NOTE_4
  1

  0
CIRCLE
  5
DB
330
D8
100
AcDbEntity
  8
SLD-0
 62
     0
100
AcDbCircle
 10
-8.9284565426
 20
-3.7229717213
 30
0.0
 40
9.673564734433738
  0
MTEXT
  5
DC
330
D8
100
AcDbEntity
  8
SLD-0
 62
     0
100
AcDbMText
 10
-8.9235954784
 20
-1.7984328303
 30
0.0
 40
3.5
 41
0.0
 71
     2
 72
     1
  1
WJ3
  7
SLDTEXTSTYLE0
 73
     1
 44
1.0
  0
ENDBLK
  5
DA
330
D8
100
AcDbEntity
  8
0
100
AcDbBlockEnd
  0
BLOCK
  5
E0
330
DF
100
AcDbEntity
  8
0
100
AcDbBlockBegin
  2
SW_NOTE_5
 70
     0
 10
0.0
 20
0.0
 30
0.0
  3
SW_NOTE_5
  1

  0
MTEXT
  5
E2
330
DF
100
AcDbEntity
  8
SLD-0
 62
     0
100
AcDbMText
 10
-12.1863239911
 20
1.8335307714
 30
0.0
 40
3.5
 41
0.0
 71
     2
 72
     1
  1
CTP 3 mm
  7
SLDTEXTSTYLE0
 73
     1
 44
1.0
  0
ENDBLK
  5
E1
330
DF
100
AcDbEntity
  8
0
100
AcDbBlockEnd
  0
BLOCK
  5
F5
330
F4
100
AcDbEntity
  8
0
100
AcDbBlockBegin
  2
SW_NOTE_6
 70
     0
 10
0.0
 20
0.0
 30
0.0
  3
SW_NOTE_6
  1

  0
MTEXT
  5
F7
330
F4
100
AcDbEntity
  8
SLD-0
 62
     0
100
AcDbMText
 10
11.8261210158
 20
1.7700039314
 30
0.0
 40
3.5
 41
0.0
 71
     2
 72
     1
  1
CTP 3 mm
  7
SLDTEXTSTYLE0
 73
     1
 44
1.0
  0
ENDBLK
  5
F6
330
F4
100
AcDbEntity
  8
0
100
AcDbBlockEnd
  0
BLOCK
  5
FB
330
FA
100
AcDbEntity
  8
0
100
AcDbBlockBegin
  2
SW_NOTE_7
 70
     0
 10
0.0
 20
0.0
 30
0.0
  3
SW_NOTE_7
  1

  0
CIRCLE
  5
FD
330
FA
100
AcDbEntity
  8
SLD-0
 62
     0
100
AcDbCircle
 10
5.0664181565
 20
8.2407075991
 30
0.0
 40
9.673564734433723
  0
MTEXT
  5
FE
330
FA
100
AcDbEntity
  8
SLD-0
 62
     0
100
AcDbMText
 10
5.0530502503
 20
10.1652464902
 30
0.0
 40
3.5
 41
0.0
 71
     2
 72
     1
  1
WS1
  7
SLDTEXTSTYLE0
 73
     1
 44
1.0
  0
ENDBLK
  5
FC
330
FA
100
AcDbEntity
  8
0
100
AcDbBlockEnd
  0
BLOCK
  5
149
330
148
100
AcDbEntity
  8
0
100
AcDbBlockBegin
  2
SW_NOTE_8
 70
     0
 10
0.0
 20
0.0
 30
0.0
  3
SW_NOTE_8
  1

  0
CIRCLE
  5
14B
330
148
100
AcDbEntity
  8
SLD-0
 62
     0
100
AcDbCircle
 10
4.5009168359
 20
8.5626866291
 30
0.0
 40
9.673564734433748
  0
MTEXT
  5
14C
330
148
100
AcDbEntity
  8
SLD-0
 62
     0
100
AcDbMText
 10
4.4875489297
 20
10.4872255201
 30
0.0
 40
3.5
 41
0.0
 71
     2
 72
     1
  1
WS2
  7
SLDTEXTSTYLE0
 73
     1
 44
1.0
  0
ENDBLK
  5
14A
330
148
100
AcDbEntity
  8
0
100
AcDbBlockEnd
  0
BLOCK
  5
150
330
14F
100
AcDbEntity
  8
0
100
AcDbBlockBegin
  2
SW_NOTE_9
 70
     0
 10
0.0
 20
0.0
 30
0.0
  3
SW_NOTE_9
  1

  0
MTEXT
  5
152
330
14F
100
AcDbEntity
  8
SLD-0
 62
     0
100
AcDbMText
 10
11.7795852336
 20
1.7354462822
 30
0.0
 40
3.5
 41
0.0
 71
     2
 72
     1
  1
CTP 3 mm
  7
SLDTEXTSTYLE0
 73
     1
 44
1.0
  0
ENDBLK
  5
151
330
14F
100
AcDbEntity
  8
0
100
AcDbBlockEnd
  0
BLOCK
  5
185
330
184
100
AcDbEntity
  8
0
100
AcDbBlockBegin
  2
SW_NOTE_10
 70
     0
 10
0.0
 20
0.0
 30
0.0
  3
SW_NOTE_10
  1

  0
CIRCLE
  5
187
330
184
100
AcDbEntity
  8
SLD-0
 62
     0
100
AcDbCircle
 10
4.4353377973
 20
8.596838564
 30
0.0
 40
9.673564734433736
  0
MTEXT
  5
188
330
184
100
AcDbEntity
  8
SLD-0
 62
     0
100
AcDbMText
 10
4.4219698911
 20
10.521377455
 30
0.0
 40
3.5
 41
0.0
 71
     2
 72
     1
  1
WS3
  7
SLDTEXTSTYLE0
 73
     1
 44
1.0
  0
ENDBLK
  5
186
330
184
100
AcDbEntity
  8
0
100
AcDbBlockEnd
  0
BLOCK
  5
18C
330
18B
100
AcDbEntity
  8
0
100
AcDbBlockBegin
  2
SW_NOTE_11
 70
     0
 10
0.0
 20
0.0
 30
0.0
  3
SW_NOTE_11
  1

  0
MTEXT
  5
18E
330
18B
100
AcDbEntity
  8
SLD-0
 62
     0
100
AcDbMText
 10
11.8528736081
 20
1.7321275412
 30
0.0
 40
3.5
 41
0.0
 71
     2
 72
     1
  1
CTP 3 mm
  7
SLDTEXTSTYLE0
 73
     1
 44
1.0
  0
ENDBLK
  5
18D
330
18B
100
AcDbEntity
  8
0
100
AcDbBlockEnd
  0
BLOCK
  5
1AC
330
1AB
100
AcDbEntity
  8
0
100
AcDbBlockBegin
  2
SW_NOTE_12
 70
     0
 10
0.0
 20
0.0
 30
0.0
  3
SW_NOTE_12
  1

  0
CIRCLE
  5
1AE
330
1AB
100
AcDbEntity
  8
SLD-0
 62
     0
100
AcDbCircle
 10
8.9926143934
 20
3.5652126224
 30
0.0
 40
9.673564734433723
  0
MTEXT
  5
1AF
330
1AB
100
AcDbEntity
  8
SLD-0
 62
     0
100
AcDbMText
 10
8.9792464872
 20
5.4897515134
 30
0.0
 40
3.5
 41
0.0
 71
     2
 72
     1
  1
WS4
  7
SLDTEXTSTYLE0
 73
     1
 44
1.0
  0
ENDBLK
  5
1AD
330
1AB
100
AcDbEntity
  8
0
100
AcDbBlockEnd
  0
BLOCK
  5
1B3
330
1B2
100
AcDbEntity
  8
0
100
AcDbBlockBegin
  2
SW_NOTE_13
 70
     0
 10
0.0
 20
0.0
 30
0.0
  3
SW_NOTE_13
  1

  0
MTEXT
  5
1B5
330
1B2
100
AcDbEntity
  8
SLD-0
 62
     0
100
AcDbMText
 10
21.0709665871
 20
1.7060745368
 30
0.0
 40
3.5
 41
0.0
 71
     2
 72
     1
  1
Balsa Andino 3 mm
  7
SLDTEXTSTYLE0
 73
     1
 44
1.0
  0
ENDBLK
  5
1B4
330
1B2
100
AcDbEntity
  8
0
100
AcDbBlockEnd
  0
BLOCK
  5
1BE
330
1BD
100
AcDbEntity
  8
0
100
AcDbBlockBegin
  2
SW_NOTE_14
 70
     0
 10
0.0
 20
0.0
 30
0.0
  3
SW_NOTE_14
  1

  0
CIRCLE
  5
1C0
330
1BD
100
AcDbEntity
  8
SLD-0
 62
     0
100
AcDbCircle
 10
2.3995378747
 20
9.3712364531
 30
0.0
 40
9.673564734433846
  0
MTEXT
  5
1C1
330
1BD
100
AcDbEntity
  8
SLD-0
 62
     0
100
AcDbMText
 10
2.3582184001
 20
11.2957753441
 30
0.0
 40
3.5
 41
0.0
 71
     2
 72
     1
  1
WT1
  7
SLDTEXTSTYLE0
 73
     1
 44
1.0
  0
ENDBLK
  5
1BF
330
1BD
100
AcDbEntity
  8
0
100
AcDbBlockEnd
  0
BLOCK
  5
1C5
330
1C4
100
AcDbEntity
  8
0
100
AcDbBlockBegin
  2
SW_NOTE_15
 70
     0
 10
0.0
 20
0.0
 30
0.0
  3
SW_NOTE_15
  1

  0
MTEXT
  5
1C7
330
1C4
100
AcDbEntity
  8
SLD-0
 62
     0
100
AcDbMText
 10
9.2096242634
 20
1.7076362076
 30
0.0
 40
3.5
 41
0.0
 71
     2
 72
     1
  1
Bois dur
  7
SLDTEXTSTYLE0
 73
     1
 44
1.0
  0
ENDBLK
  5
1C6
330
1C4
100
AcDbEntity
  8
0
100
AcDbBlockEnd
  0
BLOCK
  5
205
330
204
100
AcDbEntity
  8
0
100
AcDbBlockBegin
  2
_D
 70
     0
 10
0.0
 20
0.0
 30
0.0
  3
_D
  1

  0
SOLID
  5
207
330
204
100
AcDbEntity
  8
SLD-0
100
AcDbTrace
 10
900.1396178725
 20
332.1556877978
 30
0.0
 11
904.1396178725
 21
331.5556877978
 31
0.0
 12
904.1396178725
 22
332.7556877978
 32
0.0
 13
904.1396178725
 23
332.7556877978
 33
0.0
  0
SOLID
  5
208
330
204
100
AcDbEntity
  8
SLD-0
100
AcDbTrace
 10
1058.4020460014
 20
332.1556877978
 30
0.0
 11
1054.4020460014
 21
332.7556877978
 31
0.0
 12
1054.4020460014
 22
331.5556877978
 32
0.0
 13
1054.4020460014
 23
331.5556877978
 33
0.0
  0
LINE
  5
209
330
204
100
AcDbEntity
  8
SLD-0
100
AcDbLine
 10
900.1396178725
 20
319.6689238957
 30
0.0
 11
900.1396178725
 21
333.1556877978
 31
0.0
  0
LINE
  5
20A
330
204
100
AcDbEntity
  8
SLD-0
100
AcDbLine
 10
1058.4020460014
 20
320.10039474
 30
0.0
 11
1058.4020460014
 21
333.1556877978
 31
0.0
  0
LINE
  5
20B
330
204
100
AcDbEntity
  8
SLD-0
100
AcDbLine
 10
900.1396178725
 20
332.1556877978
 30
0.0
 11
1058.4020460014
 21
332.1556877978
 31
0.0
  0
MTEXT
  5
20C
330
204
100
AcDbEntity
  8
SLD-0
100
AcDbMText
 10
976.4101340213
 20
335.3783569726
 30
0.0
 40
2.5
 41
0.0
 71
     1
 72
     1
  1
158
  7
SLDTEXTSTYLE0
 73
     1
 44
1.0
  0
ENDBLK
  5
206
330
204
100
AcDbEntity
  8
0
100
AcDbBlockEnd
  0
BLOCK
  5
210
330
20F
100
AcDbEntity
  8
0
100
AcDbBlockBegin
  2
_D_1
 70
     0
 10
0.0
 20
0.0
 30
0.0
  3
_D_1
  1

  0
SOLID
  5
212
330
20F
100
AcDbEntity
  8
SLD-0
100
AcDbTrace
 10
911.1327488269
 20
307.7191230783
 30
0.0
 11
910.5327488269
 21
303.7191230783
 31
0.0
 12
911.7327488269
 22
303.7191230783
 32
0.0
 13
911.7327488269
 23
303.7191230783
 33
0.0
  0
SOLID
  5
213
330
20F
100
AcDbEntity
  8
SLD-0
100
AcDbTrace
 10
911.1327488269
 20
263.2191230783
 30
0.0
 11
911.7327488269
 21
267.2191230783
 31
0.0
 12
910.5327488269
 22
267.2191230783
 32
0.0
 13
910.5327488269
 23
267.2191230783
 33
0.0
  0
LINE
  5
214
330
20F
100
AcDbEntity
  8
SLD-0
100
AcDbLine
 10
911.1327488269
 20
307.7191230783
 30
0.0
 11
911.1327488269
 21
263.2191230783
 31
0.0
  0
MTEXT
  5
215
330
20F
100
AcDbEntity
  8
SLD-0
100
AcDbMText
 10
907.910079652
 20
282.1283080299
 30
0.0
 40
2.5
 41
0.0
 71
     1
 72
     1
  1
44.5
  7
SLDTEXTSTYLE0
 11
-3.491481338843133E-15
 21
1.0
 31
0.0
 73
     1
 44
1.0
  0
ENDBLK
  5
211
330
20F
100
AcDbEntity
  8
0
100
AcDbBlockEnd
  0
BLOCK
  5
229
330
228
100
AcDbEntity
  8
0
100
AcDbBlockBegin
  2
_D_2
 70
     0
 10
0.0
 20
0.0
 30
0.0
  3
_D_2
  1

  0
SOLID
  5
22B
330
228
100
AcDbEntity
  8
SLD-0
100
AcDbTrace
 10
1093.2633576104
 20
390.5168396901
 30
0.0
 11
1089.2633576104
 21
391.1168396901
 31
0.0
 12
1089.2633576104
 22
389.9168396901
 32
0.0
 13
1089.2633576104
 23
389.9168396901
 33
0.0
  0
SOLID
  5
22C
330
228
100
AcDbEntity
  8
SLD-0
100
AcDbTrace
 10
1102.9208406829
 20
390.5168396901
 30
0.0
 11
1106.9208406829
 21
389.9168396901
 31
0.0
 12
1106.9208406829
 22
391.1168396901
 32
0.0
 13
1106.9208406829
 23
391.1168396901
 33
0.0
  0
LINE
  5
22D
330
228
100
AcDbEntity
  8
SLD-0
100
AcDbLine
 10
1093.2633576104
 20
381.5168396901
 30
0.0
 11
1093.2633576104
 21
391.5168396901
 31
0.0
  0
LINE
  5
22E
330
228
100
AcDbEntity
  8
SLD-0
100
AcDbLine
 10
1102.9208406829
 20
381.5168396901
 30
0.0
 11
1102.9208406829
 21
391.5168396901
 31
0.0
  0
LINE
  5
22F
330
228
100
AcDbEntity
  8
SLD-0
100
AcDbLine
 10
1093.2633576104
 20
390.5168396901
 30
0.0
 11
1086.2633576104
 21
390.5168396901
 31
0.0
  0
LINE
  5
230
330
228
100
AcDbEntity
  8
SLD-0
100
AcDbLine
 10
1093.2633576104
 20
390.5168396901
 30
0.0
 11
1102.9208406829
 21
390.5168396901
 31
0.0
  0
LINE
  5
231
330
228
100
AcDbEntity
  8
SLD-0
100
AcDbLine
 10
1102.9208406829
 20
390.5168396901
 30
0.0
 11
1109.9208406829
 21
390.5168396901
 31
0.0
  0
MTEXT
  5
232
330
228
100
AcDbEntity
  8
SLD-0
100
AcDbMText
 10
1095.7065171435
 20
393.7395088649
 30
0.0
 40
2.5
 41
0.0
 71
     1
 72
     1
  1
9.7
  7
SLDTEXTSTYLE0
 73
     1
 44
1.0
  0
ENDBLK
  5
22A
330
228
100
AcDbEntity
  8
0
100
AcDbBlockEnd
  0
BLOCK
  5
235
330
234
100
AcDbEntity
  8
0
100
AcDbBlockBegin
  2
_D_3
 70
     0
 10
0.0
 20
0.0
 30
0.0
  3
_D_3
  1

  0
SOLID
  5
237
330
234
100
AcDbEntity
  8
SLD-0
100
AcDbTrace
 10
1090.2181886243
 20
355.5168396901
 30
0.0
 11
1086.2181886243
 21
356.1168396901
 31
0.0
 12
1086.2181886243
 22
354.9168396901
 32
0.0
 13
1086.2181886243
 23
354.9168396901
 33
0.0
  0
SOLID
  5
238
330
234
100
AcDbEntity
  8
SLD-0
100
AcDbTrace
 10
1102.9208406829
 20
355.5168396901
 30
0.0
 11
1106.9208406829
 21
354.9168396901
 31
0.0
 12
1106.9208406829
 22
356.1168396901
 32
0.0
 13
1106.9208406829
 23
356.1168396901
 33
0.0
  0
LINE
  5
239
330
234
100
AcDbEntity
  8
SLD-0
100
AcDbLine
 10
1090.2181886243
 20
364.5168396901
 30
0.0
 11
1090.2181886243
 21
354.5168396901
 31
0.0
  0
LINE
  5
23A
330
234
100
AcDbEntity
  8
SLD-0
100
AcDbLine
 10
1102.9208406829
 20
364.5168396901
 30
0.0
 11
1102.9208406829
 21
354.5168396901
 31
0.0
  0
LINE
  5
23B
330
234
100
AcDbEntity
  8
SLD-0
100
AcDbLine
 10
1090.2181886243
 20
355.5168396901
 30
0.0
 11
1083.2181886243
 21
355.5168396901
 31
0.0
  0
LINE
  5
23C
330
234
100
AcDbEntity
  8
SLD-0
100
AcDbLine
 10
1090.2181886243
 20
355.5168396901
 30
0.0
 11
1102.9208406829
 21
355.5168396901
 31
0.0
  0
LINE
  5
23D
330
234
100
AcDbEntity
  8
SLD-0
100
AcDbLine
 10
1102.9208406829
 20
355.5168396901
 30
0.0
 11
1109.9208406829
 21
355.5168396901
 31
0.0
  0
MTEXT
  5
23E
330
234
100
AcDbEntity
  8
SLD-0
100
AcDbMText
 10
1093.2286996052
 20
358.7395088649
 30
0.0
 40
2.5
 41
0.0
 71
     1
 72
     1
  1
12.7
  7
SLDTEXTSTYLE0
 73
     1
 44
1.0
  0
ENDBLK
  5
236
330
234
100
AcDbEntity
  8
0
100
AcDbBlockEnd
  0
BLOCK
  5
241
330
240
100
AcDbEntity
  8
0
100
AcDbBlockBegin
  2
_D_4
 70
     0
 10
0.0
 20
0.0
 30
0.0
  3
_D_4
  1

  0
SOLID
  5
243
330
240
100
AcDbEntity
  8
SLD-0
100
AcDbTrace
 10
1147.4208406829
 20
355.5168396901
 30
0.0
 11
1143.4208406829
 21
356.1168396901
 31
0.0
 12
1143.4208406829
 22
354.9168396901
 32
0.0
 13
1143.4208406829
 23
354.9168396901
 33
0.0
  0
SOLID
  5
244
330
240
100
AcDbEntity
  8
SLD-0
100
AcDbTrace
 10
1162.0123228506
 20
355.5168396901
 30
0.0
 11
1166.0123228506
 21
354.9168396901
 31
0.0
 12
1166.0123228506
 22
356.1168396901
 32
0.0
 13
1166.0123228506
 23
356.1168396901
 33
0.0
  0
LINE
  5
245
330
240
100
AcDbEntity
  8
SLD-0
100
AcDbLine
 10
1147.4208406829
 20
364.5168396901
 30
0.0
 11
1147.4208406829
 21
354.5168396901
 31
0.0
  0
LINE
  5
246
330
240
100
AcDbEntity
  8
SLD-0
100
AcDbLine
 10
1162.0123228506
 20
364.5168396901
 30
0.0
 11
1162.0123228506
 21
354.5168396901
 31
0.0
  0
LINE
  5
247
330
240
100
AcDbEntity
  8
SLD-0
100
AcDbLine
 10
1147.4208406829
 20
355.5168396901
 30
0.0
 11
1140.4208406829
 21
355.5168396901
 31
0.0
  0
LINE
  5
248
330
240
100
AcDbEntity
  8
SLD-0
100
AcDbLine
 10
1147.4208406829
 20
355.5168396901
 30
0.0
 11
1162.0123228506
 21
355.5168396901
 31
0.0
  0
LINE
  5
249
330
240
100
AcDbEntity
  8
SLD-0
100
AcDbLine
 10
1162.0123228506
 20
355.5168396901
 30
0.0
 11
1169.0123228506
 21
355.5168396901
 31
0.0
  0
MTEXT
  5
24A
330
240
100
AcDbEntity
  8
SLD-0
100
AcDbMText
 10
1151.3757667183
 20
358.7395088649
 30
0.0
 40
2.5
 41
0.0
 71
     1
 72
     1
  1
14.6
  7
SLDTEXTSTYLE0
 73
     1
 44
1.0
  0
ENDBLK
  5
242
330
240
100
AcDbEntity
  8
0
100
AcDbBlockEnd
  0
BLOCK
  5
24D
330
24C
100
AcDbEntity
  8
0
100
AcDbBlockBegin
  2
_D_5
 70
     0
 10
0.0
 20
0.0
 30
0.0
  3
_D_5
  1

  0
SOLID
  5
24F
330
24C
100
AcDbEntity
  8
SLD-0
100
AcDbTrace
 10
1147.4208406829
 20
390.5168396901
 30
0.0
 11
1143.4208406829
 21
391.1168396901
 31
0.0
 12
1143.4208406829
 22
389.9168396901
 32
0.0
 13
1143.4208406829
 23
389.9168396901
 33
0.0
  0
SOLID
  5
250
330
24C
100
AcDbEntity
  8
SLD-0
100
AcDbTrace
 10
1160.4890645983
 20
390.5168396901
 30
0.0
 11
1164.4890645983
 21
389.9168396901
 31
0.0
 12
1164.4890645983
 22
391.1168396901
 32
0.0
 13
1164.4890645983
 23
391.1168396901
 33
0.0
  0
LINE
  5
251
330
24C
100
AcDbEntity
  8
SLD-0
100
AcDbLine
 10
1147.4208406829
 20
381.5168396901
 30
0.0
 11
1147.4208406829
 21
391.5168396901
 31
0.0
  0
LINE
  5
252
330
24C
100
AcDbEntity
  8
SLD-0
100
AcDbLine
 10
1160.4890645983
 20
381.5168396901
 30
0.0
 11
1160.4890645983
 21
391.5168396901
 31
0.0
  0
LINE
  5
253
330
24C
100
AcDbEntity
  8
SLD-0
100
AcDbLine
 10
1147.4208406829
 20
390.5168396901
 30
0.0
 11
1140.4208406829
 21
390.5168396901
 31
0.0
  0
LINE
  5
254
330
24C
100
AcDbEntity
  8
SLD-0
100
AcDbLine
 10
1147.4208406829
 20
390.5168396901
 30
0.0
 11
1160.4890645983
 21
390.5168396901
 31
0.0
  0
LINE
  5
255
330
24C
100
AcDbEntity
  8
SLD-0
100
AcDbLine
 10
1160.4890645983
 20
390.5168396901
 30
0.0
 11
1167.4890645983
 21
390.5168396901
 31
0.0
  0
MTEXT
  5
256
330
24C
100
AcDbEntity
  8
SLD-0
100
AcDbMText
 10
1150.6141375922
 20
393.7395088649
 30
0.0
 40
2.5
 41
0.0
 71
     1
 72
     1
  1
13.1
  7
SLDTEXTSTYLE0
 73
     1
 44
1.0
  0
ENDBLK
  5
24E
330
24C
100
AcDbEntity
  8
0
100
AcDbBlockEnd
  0
BLOCK
  5
25A
330
259
100
AcDbEntity
  8
0
100
AcDbBlockBegin
  2
_D_6
 70
     0
 10
0.0
 20
0.0
 30
0.0
  3
_D_6
  1

  0
SOLID
  5
25C
330
259
100
AcDbEntity
  8
SLD-0
100
AcDbTrace
 10
1172.879662818
 20
380.5168396901
 30
0.0
 11
1173.479662818
 21
384.5168396901
 31
0.0
 12
1172.279662818
 22
384.5168396901
 32
0.0
 13
1172.279662818
 23
384.5168396901
 33
0.0
  0
SOLID
  5
25D
330
259
100
AcDbEntity
  8
SLD-0
100
AcDbTrace
 10
1172.879662818
 20
365.5168396901
 30
0.0
 11
1172.279662818
 21
361.5168396901
 31
0.0
 12
1173.479662818
 22
361.5168396901
 32
0.0
 13
1173.479662818
 23
361.5168396901
 33
0.0
  0
LINE
  5
25E
330
259
100
AcDbEntity
  8
SLD-0
100
AcDbLine
 10
1162.35134029
 20
380.5168396901
 30
0.0
 11
1173.879662818
 21
380.5168396901
 31
0.0
  0
LINE
  5
25F
330
259
100
AcDbEntity
  8
SLD-0
100
AcDbLine
 10
1163.879662818
 20
365.5168396901
 30
0.0
 11
1173.879662818
 21
365.5168396901
 31
0.0
  0
LINE
  5
260
330
259
100
AcDbEntity
  8
SLD-0
100
AcDbLine
 10
1172.879662818
 20
380.5168396901
 30
0.0
 11
1172.879662818
 21
387.5168396901
 31
0.0
  0
LINE
  5
261
330
259
100
AcDbEntity
  8
SLD-0
100
AcDbLine
 10
1172.879662818
 20
380.5168396901
 30
0.0
 11
1172.879662818
 21
365.5168396901
 31
0.0
  0
LINE
  5
262
330
259
100
AcDbEntity
  8
SLD-0
100
AcDbLine
 10
1172.879662818
 20
365.5168396901
 30
0.0
 11
1172.879662818
 21
358.5168396901
 31
0.0
  0
MTEXT
  5
263
330
259
100
AcDbEntity
  8
SLD-0
100
AcDbMText
 10
1169.6569936432
 20
371.1113748197
 30
0.0
 40
2.5
 41
0.0
 71
     1
 72
     1
  1
15
  7
SLDTEXTSTYLE0
 11
-7.932373437343760E-15
 21
1.0
 31
0.0
 73
     1
 44
1.0
  0
ENDBLK
  5
25B
330
259
100
AcDbEntity
  8
0
100
AcDbBlockEnd
  0
BLOCK
  5
278
330
277
100
AcDbEntity
  8
0
100
AcDbBlockBegin
  2
_D_7
 70
     0
 10
0.0
 20
0.0
 30
0.0
  3
_D_7
  1

  0
SOLID
  5
27A
330
277
100
AcDbEntity
  8
SLD-0
100
AcDbTrace
 10
1102.9208406829
 20
331.8892963607
 30
0.0
 11
1106.9208406829
 21
331.2892963607
 31
0.0
 12
1106.9208406829
 22
332.4892963607
 32
0.0
 13
1106.9208406829
 23
332.4892963607
 33
0.0
  0
SOLID
  5
27B
330
277
100
AcDbEntity
  8
SLD-0
100
AcDbTrace
 10
1091.5395690212
 20
331.8892963607
 30
0.0
 11
1087.5395690212
 21
332.4892963607
 31
0.0
 12
1087.5395690212
 22
331.2892963607
 32
0.0
 13
1087.5395690212
 23
331.2892963607
 33
0.0
  0
LINE
  5
27C
330
277
100
AcDbEntity
  8
SLD-0
100
AcDbLine
 10
1102.9208406829
 20
322.8892963607
 30
0.0
 11
1102.9208406829
 21
332.8892963607
 31
0.0
  0
LINE
  5
27D
330
277
100
AcDbEntity
  8
SLD-0
100
AcDbLine
 10
1091.5395690212
 20
322.8892963607
 30
0.0
 11
1091.5395690212
 21
332.8892963607
 31
0.0
  0
LINE
  5
27E
330
277
100
AcDbEntity
  8
SLD-0
100
AcDbLine
 10
1102.9208406829
 20
331.8892963607
 30
0.0
 11
1109.9208406829
 21
331.8892963607
 31
0.0
  0
LINE
  5
27F
330
277
100
AcDbEntity
  8
SLD-0
100
AcDbLine
 10
1102.9208406829
 20
331.8892963607
 30
0.0
 11
1091.5395690212
 21
331.8892963607
 31
0.0
  0
LINE
  5
280
330
277
100
AcDbEntity
  8
SLD-0
100
AcDbLine
 10
1091.5395690212
 20
331.8892963607
 30
0.0
 11
1084.5395690212
 21
331.8892963607
 31
0.0
  0
MTEXT
  5
281
330
277
100
AcDbEntity
  8
SLD-0
100
AcDbMText
 10
1093.8893898036
 20
335.1119655355
 30
0.0
 40
2.5
 41
0.0
 71
     1
 72
     1
  1
11.4
  7
SLDTEXTSTYLE0
 73
     1
 44
1.0
  0
ENDBLK
  5
279
330
277
100
AcDbEntity
  8
0
100
AcDbBlockEnd
  0
BLOCK
  5
284
330
283
100
AcDbEntity
  8
0
100
AcDbBlockBegin
  2
_D_8
 70
     0
 10
0.0
 20
0.0
 30
0.0
  3
_D_8
  1

  0
SOLID
  5
286
330
283
100
AcDbEntity
  8
SLD-0
100
AcDbTrace
 10
1102.9208406829
 20
296.8892963607
 30
0.0
 11
1106.9208406829
 21
296.2892963607
 31
0.0
 12
1106.9208406829
 22
297.4892963607
 32
0.0
 13
1106.9208406829
 23
297.4892963607
 33
0.0
  0
SOLID
  5
287
330
283
100
AcDbEntity
  8
SLD-0
100
AcDbTrace
 10
1088.4842759634
 20
296.8892963607
 30
0.0
 11
1084.4842759634
 21
297.4892963607
 31
0.0
 12
1084.4842759634
 22
296.2892963607
 32
0.0
 13
1084.4842759634
 23
296.2892963607
 33
0.0
  0
LINE
  5
288
330
283
100
AcDbEntity
  8
SLD-0
100
AcDbLine
 10
1102.9208406829
 20
305.8892963607
 30
0.0
 11
1102.9208406829
 21
295.8892963607
 31
0.0
  0
LINE
  5
289
330
283
100
AcDbEntity
  8
SLD-0
100
AcDbLine
 10
1088.4842759634
 20
305.8892963607
 30
0.0
 11
1088.4842759634
 21
295.8892963607
 31
0.0
  0
LINE
  5
28A
330
283
100
AcDbEntity
  8
SLD-0
100
AcDbLine
 10
1102.9208406829
 20
296.8892963607
 30
0.0
 11
1109.9208406829
 21
296.8892963607
 31
0.0
  0
LINE
  5
28B
330
283
100
AcDbEntity
  8
SLD-0
100
AcDbLine
 10
1102.9208406829
 20
296.8892963607
 30
0.0
 11
1088.4842759634
 21
296.8892963607
 31
0.0
  0
LINE
  5
28C
330
283
100
AcDbEntity
  8
SLD-0
100
AcDbLine
 10
1088.4842759634
 20
296.8892963607
 30
0.0
 11
1081.4842759634
 21
296.8892963607
 31
0.0
  0
MTEXT
  5
28D
330
283
100
AcDbEntity
  8
SLD-0
100
AcDbMText
 10
1092.3617432748
 20
300.1119655355
 30
0.0
 40
2.5
 41
0.0
 71
     1
 72
     1
  1
14.4
  7
SLDTEXTSTYLE0
 73
     1
 44
1.0
  0
ENDBLK
  5
285
330
283
100
AcDbEntity
  8
0
100
AcDbBlockEnd
  0
BLOCK
  5
290
330
28F
100
AcDbEntity
  8
0
100
AcDbBlockBegin
  2
_D_9
 70
     0
 10
0.0
 20
0.0
 30
0.0
  3
_D_9
  1

  0
SOLID
  5
292
330
28F
100
AcDbEntity
  8
SLD-0
100
AcDbTrace
 10
1161.35134029
 20
331.8892963607
 30
0.0
 11
1165.35134029
 21
331.2892963607
 31
0.0
 12
1165.35134029
 22
332.4892963607
 32
0.0
 13
1165.35134029
 23
332.4892963607
 33
0.0
  0
SOLID
  5
293
330
28F
100
AcDbEntity
  8
SLD-0
100
AcDbTrace
 10
1147.4208406829
 20
331.8892963607
 30
0.0
 11
1143.4208406829
 21
332.4892963607
 31
0.0
 12
1143.4208406829
 22
331.2892963607
 32
0.0
 13
1143.4208406829
 23
331.2892963607
 33
0.0
  0
LINE
  5
294
330
28F
100
AcDbEntity
  8
SLD-0
100
AcDbLine
 10
1161.35134029
 20
322.8892963607
 30
0.0
 11
1161.35134029
 21
332.8892963607
 31
0.0
  0
LINE
  5
295
330
28F
100
AcDbEntity
  8
SLD-0
100
AcDbLine
 10
1147.4208406829
 20
322.8892963607
 30
0.0
 11
1147.4208406829
 21
332.8892963607
 31
0.0
  0
LINE
  5
296
330
28F
100
AcDbEntity
  8
SLD-0
100
AcDbLine
 10
1161.35134029
 20
331.8892963607
 30
0.0
 11
1168.35134029
 21
331.8892963607
 31
0.0
  0
LINE
  5
297
330
28F
100
AcDbEntity
  8
SLD-0
100
AcDbLine
 10
1161.35134029
 20
331.8892963607
 30
0.0
 11
1147.4208406829
 21
331.8892963607
 31
0.0
  0
LINE
  5
298
330
28F
100
AcDbEntity
  8
SLD-0
100
AcDbLine
 10
1147.4208406829
 20
331.8892963607
 30
0.0
 11
1140.4208406829
 21
331.8892963607
 31
0.0
  0
MTEXT
  5
299
330
28F
100
AcDbEntity
  8
SLD-0
100
AcDbMText
 10
1151.045275438
 20
335.1119655355
 30
0.0
 40
2.5
 41
0.0
 71
     1
 72
     1
  1
13.9
  7
SLDTEXTSTYLE0
 73
     1
 44
1.0
  0
ENDBLK
  5
291
330
28F
100
AcDbEntity
  8
0
100
AcDbBlockEnd
  0
BLOCK
  5
29C
330
29B
100
AcDbEntity
  8
0
100
AcDbBlockBegin
  2
_D_10
 70
     0
 10
0.0
 20
0.0
 30
0.0
  3
_D_10
  1

  0
SOLID
  5
29E
330
29B
100
AcDbEntity
  8
SLD-0
100
AcDbTrace
 10
1162.879662818
 20
296.8892963607
 30
0.0
 11
1166.879662818
 21
296.2892963607
 31
0.0
 12
1166.879662818
 22
297.4892963607
 32
0.0
 13
1166.879662818
 23
297.4892963607
 33
0.0
  0
SOLID
  5
29F
330
29B
100
AcDbEntity
  8
SLD-0
100
AcDbTrace
 10
1147.4208406829
 20
296.8892963607
 30
0.0
 11
1143.4208406829
 21
297.4892963607
 31
0.0
 12
1143.4208406829
 22
296.2892963607
 32
0.0
 13
1143.4208406829
 23
296.2892963607
 33
0.0
  0
LINE
  5
2A0
330
29B
100
AcDbEntity
  8
SLD-0
100
AcDbLine
 10
1162.879662818
 20
305.8892963607
 30
0.0
 11
1162.879662818
 21
295.8892963607
 31
0.0
  0
LINE
  5
2A1
330
29B
100
AcDbEntity
  8
SLD-0
100
AcDbLine
 10
1147.4208406829
 20
305.8892963607
 30
0.0
 11
1147.4208406829
 21
295.8892963607
 31
0.0
  0
LINE
  5
2A2
330
29B
100
AcDbEntity
  8
SLD-0
100
AcDbLine
 10
1162.879662818
 20
296.8892963607
 30
0.0
 11
1169.879662818
 21
296.8892963607
 31
0.0
  0
LINE
  5
2A3
330
29B
100
AcDbEntity
  8
SLD-0
100
AcDbLine
 10
1162.879662818
 20
296.8892963607
 30
0.0
 11
1147.4208406829
 21
296.8892963607
 31
0.0
  0
LINE
  5
2A4
330
29B
100
AcDbEntity
  8
SLD-0
100
AcDbLine
 10
1147.4208406829
 20
296.8892963607
 30
0.0
 11
1140.4208406829
 21
296.8892963607
 31
0.0
  0
MTEXT
  5
2A5
330
29B
100
AcDbEntity
  8
SLD-0
100
AcDbMText
 10
1151.8094367021
 20
300.1119655355
 30
0.0
 40
2.5
 41
0.0
 71
     1
 72
     1
  1
15.5
  7
SLDTEXTSTYLE0
 73
     1
 44
1.0
  0
ENDBLK
  5
29D
330
29B
100
AcDbEntity
  8
0
100
AcDbBlockEnd
  0
BLOCK
  5
2C0
330
2BF
100
AcDbEntity
  8
0
100
AcDbBlockBegin
  2
SW_NOTE_16
 70
     0
 10
0.0
 20
0.0
 30
0.0
  3
SW_NOTE_16
  1

  0
CIRCLE
  5
2C2
330
2BF
100
AcDbEntity
  8
SLD-0
 62
     0
100
AcDbCircle
 10
3.3340294047
 20
9.0808646394
 30
0.0
 40
9.673564734433736
  0
MTEXT
  5
2C3
330
2BF
100
AcDbEntity
  8
SLD-0
 62
     0
100
AcDbMText
 10
3.2987861394
 20
11.0054035305
 30
0.0
 40
3.5
 41
0.0
 71
     2
 72
     1
  1
WD3
  7
SLDTEXTSTYLE0
 73
     1
 44
1.0
  0
ENDBLK
  5
2C1
330
2BF
100
AcDbEntity
  8
0
100
AcDbBlockEnd
  0
BLOCK
  5
2C7
330
2C6
100
AcDbEntity
  8
0
100
AcDbBlockBegin
  2
SW_NOTE_17
 70
     0
 10
0.0
 20
0.0
 30
0.0
  3
SW_NOTE_17
  1

  0
MTEXT
  5
2C9
330
2C6
100
AcDbEntity
  8
SLD-0
 62
     0
100
AcDbMText
 10
11.8656423281
 20
1.7998535842
 30
0.0
 40
3.5
 41
0.0
 71
     2
 72
     1
  1
CTP 2 mm
  7
SLDTEXTSTYLE0
 73
     1
 44
1.0
  0
ENDBLK
  5
2C8
330
2C6
100
AcDbEntity
  8
0
100
AcDbBlockEnd
  0
BLOCK
  5
2D6
330
2D5
100
AcDbEntity
  8
0
100
AcDbBlockBegin
  2
SW_NOTE_18
 70
     0
 10
0.0
 20
0.0
 30
0.0
  3
SW_NOTE_18
  1

  0
CIRCLE
  5
2D8
330
2D5
100
AcDbEntity
  8
SLD-0
 62
     0
100
AcDbCircle
 10
8.6661024461
 20
4.2984326289
 30
0.0
 40
9.673564734433684
  0
MTEXT
  5
2D9
330
2D5
100
AcDbEntity
  8
SLD-0
 62
     0
100
AcDbMText
 10
8.6308591808
 20
6.2229715199
 30
0.0
 40
3.5
 41
0.0
 71
     2
 72
     1
  1
WD4
  7
SLDTEXTSTYLE0
 73
     1
 44
1.0
  0
ENDBLK
  5
2D7
330
2D5
100
AcDbEntity
  8
0
100
AcDbBlockEnd
  0
BLOCK
  5
2DD
330
2DC
100
AcDbEntity
  8
0
100
AcDbBlockBegin
  2
SW_NOTE_19
 70
     0
 10
0.0
 20
0.0
 30
0.0
  3
SW_NOTE_19
  1

  0
MTEXT
  5
2DF
330
2DC
100
AcDbEntity
  8
SLD-0
 62
     0
100
AcDbMText
 10
11.8301178925
 20
1.7263621893
 30
0.0
 40
3.5
 41
0.0
 71
     2
 72
     1
  1
CTP 2 mm
  7
SLDTEXTSTYLE0
 73
     1
 44
1.0
  0
ENDBLK
  5
2DE
330
2DC
100
AcDbEntity
  8
0
100
AcDbBlockEnd
  0
BLOCK
  5
2F1
330
2F0
100
AcDbEntity
  8
0
100
AcDbBlockBegin
  2
SW_NOTE_20
 70
     0
 10
0.0
 20
0.0
 30
0.0
  3
SW_NOTE_20
  1

  0
CIRCLE
  5
2F3
330
2F0
100
AcDbEntity
  8
SLD-0
 62
     0
100
AcDbCircle
 10
-9.1465616886
 20
-3.149327539
 30
0.0
 40
9.673564734433738
  0
MTEXT
  5
2F4
330
2F0
100
AcDbEntity
  8
SLD-0
 62
     0
100
AcDbMText
 10
-9.1818049539
 20
-1.2247886479
 30
0.0
 40
3.5
 41
0.0
 71
     2
 72
     1
  1
WD5
  7
SLDTEXTSTYLE0
 73
     1
 44
1.0
  0
ENDBLK
  5
2F2
330
2F0
100
AcDbEntity
  8
0
100
AcDbBlockEnd
  0
BLOCK
  5
2F8
330
2F7
100
AcDbEntity
  8
0
100
AcDbBlockBegin
  2
SW_NOTE_21
 70
     0
 10
0.0
 20
0.0
 30
0.0
  3
SW_NOTE_21
  1

  0
MTEXT
  5
2FA
330
2F7
100
AcDbEntity
  8
SLD-0
 62
     0
100
AcDbMText
 10
-12.152355309
 20
1.9121950987
 30
0.0
 40
3.5
 41
0.0
 71
     2
 72
     1
  1
CTP 3 mm
  7
SLDTEXTSTYLE0
 73
     1
 44
1.0
  0
ENDBLK
  5
2F9
330
2F7
100
AcDbEntity
  8
0
100
AcDbBlockEnd
  0
BLOCK
  5
302
330
301
100
AcDbEntity
  8
0
100
AcDbBlockBegin
  2
SW_NOTE_22
 70
     0
 10
0.0
 20
0.0
 30
0.0
  3
SW_NOTE_22
  1

  0
CIRCLE
  5
304
330
301
100
AcDbEntity
  8
SLD-0
 62
     0
100
AcDbCircle
 10
1.8577884034
 20
9.4934965592
 30
0.0
 40
9.673564734433736
  0
MTEXT
  5
305
330
301
100
AcDbEntity
  8
SLD-0
 62
     0
100
AcDbMText
 10
1.8225451381
 20
11.4180354502
 30
0.0
 40
3.5
 41
0.0
 71
     2
 72
     1
  1
WD8
  7
SLDTEXTSTYLE0
 73
     1
 44
1.0
  0
ENDBLK
  5
303
330
301
100
AcDbEntity
  8
0
100
AcDbBlockEnd
  0
BLOCK
  5
309
330
308
100
AcDbEntity
  8
0
100
AcDbBlockBegin
  2
SW_NOTE_23
 70
     0
 10
0.0
 20
0.0
 30
0.0
  3
SW_NOTE_23
  1

  0
MTEXT
  5
30B
330
308
100
AcDbEntity
  8
SLD-0
 62
     0
100
AcDbMText
 10
32.8017962997
 20
1.7603752601
 30
0.0
 40
3.5
 41
0.0
 71
     2
 72
     1
  1
Circuit imprimé époxy (épr 1,5)
  7
SLDTEXTSTYLE0
 73
     1
 44
1.0
  0
ENDBLK
  5
30A
330
308
100
AcDbEntity
  8
0
100
AcDbBlockEnd
  0
BLOCK
  5
313
330
312
100
AcDbEntity
  8
0
100
AcDbBlockBegin
  2
SW_NOTE_24
 70
     0
 10
0.0
 20
0.0
 30
0.0
  3
SW_NOTE_24
  1

  0
CIRCLE
  5
315
330
312
100
AcDbEntity
  8
SLD-0
 62
     0
100
AcDbCircle
 10
2.6517798058
 20
9.303005887
 30
0.0
 40
9.673564734433736
  0
MTEXT
  5
316
330
312
100
AcDbEntity
  8
SLD-0
 62
     0
100
AcDbMText
 10
2.6165365405
 20
11.227544778
 30
0.0
 40
3.5
 41
0.0
 71
     2
 72
     1
  1
WD9
  7
SLDTEXTSTYLE0
 73
     1
 44
1.0
  0
ENDBLK
  5
314
330
312
100
AcDbEntity
  8
0
100
AcDbBlockEnd
  0
BLOCK
  5
31A
330
319
100
AcDbEntity
  8
0
100
AcDbBlockBegin
  2
SW_NOTE_25
 70
     0
 10
0.0
 20
0.0
 30
0.0
  3
SW_NOTE_25
  1

  0
MTEXT
  5
31C
330
319
100
AcDbEntity
  8
SLD-0
 62
     0
100
AcDbMText
 10
32.8378221687
 20
1.7465382209
 30
0.0
 40
3.5
 41
0.0
 71
     2
 72
     1
  1
Circuit imprimé époxy (épr 1,5)
  7
SLDTEXTSTYLE0
 73
     1
 44
1.0
  0
ENDBLK
  5
31B
330
319
100
AcDbEntity
  8
0
100
AcDbBlockEnd
  0
BLOCK
  5
324
330
323
100
AcDbEntity
  8
0
100
AcDbBlockBegin
  2
_NONE
 70
     0
 10
0.0
 20
0.0
 30
0.0
  3
_NONE
  1

  0
ENDBLK
  5
325
330
323
100
AcDbEntity
  8
0
100
AcDbBlockEnd
  0
BLOCK
  5
327
330
326
100
AcDbEntity
  8
0
100
AcDbBlockBegin
  2
_D_11
 70
     0
 10
0.0
 20
0.0
 30
0.0
  3
_D_11
  1

  0
SOLID
  5
329
330
326
100
AcDbEntity
  8
SLD-0
100
AcDbTrace
 10
331.3397451446
 20
60.5121440634
 30
0.0
 11
334.7826039239
 21
62.6350485422
 31
0.0
 12
334.0082274069
 22
63.5517496984
 32
0.0
 13
334.0082274069
 23
63.5517496984
 33
0.0
  0
LINE
  5
32A
330
326
100
AcDbEntity
  8
SLD-0
100
AcDbLine
 10
331.3397451446
 20
60.5121440634
 30
0.0
 11
336.8488086755
 21
65.1658847076
 31
0.0
  0
LINE
  5
32B
330
326
100
AcDbEntity
  8
SLD-0
100
AcDbLine
 10
322.1727335824
 20
52.7683788928
 30
0.0
 11
331.3397451446
 21
60.5121440634
 31
0.0
  0
LINE
  5
32C
330
326
100
AcDbEntity
  8
SLD-0
100
AcDbLine
 10
336.8488086755
 20
65.1658847076
 30
0.0
 11
350.4756266727
 21
65.1658847076
 31
0.0
  0
MTEXT
  5
32D
330
326
100
AcDbEntity
  8
SLD-0
100
AcDbMText
 10
341.4363086755
 20
68.3885540571
 30
0.0
 40
2.5
 41
0.0
 71
     1
 72
     1
  1
%%c
  7
SLDTEXTSTYLE0
 73
     1
 44
1.0
  0
MTEXT
  5
32E
330
326
100
AcDbEntity
  8
SLD-0
100
AcDbMText
 10
345.0771969318
 20
68.3885538824
 30
0.0
 40
2.5
 41
0.0
 71
     1
 72
     1
  1
12
  7
SLDTEXTSTYLE0
 73
     1
 44
1.0
  0
ENDBLK
  5
328
330
326
100
AcDbEntity
  8
0
100
AcDbBlockEnd
  0
BLOCK
  5
331
330
330
100
AcDbEntity
  8
0
100
AcDbBlockBegin
  2
_D_12
 70
     0
 10
0.0
 20
0.0
 30
0.0
  3
_D_12
  1

  0
SOLID
  5
333
330
330
100
AcDbEntity
  8
SLD-0
100
AcDbTrace
 10
327.5817260362
 20
56.0758398687
 30
0.0
 11
330.5450197612
 21
53.3228614272
 31
0.0
 12
331.2223256926
 22
54.3134454344
 32
0.0
 13
331.2223256926
 23
54.3134454344
 33
0.0
  0
LINE
  5
334
330
330
100
AcDbEntity
  8
SLD-0
100
AcDbLine
 10
327.5817260362
 20
56.0758398687
 30
0.0
 11
338.1885690322
 21
48.8234739693
 31
0.0
  0
LINE
  5
335
330
330
100
AcDbEntity
  8
SLD-0
100
AcDbLine
 10
325.9307526909
 20
57.2046830876
 30
0.0
 11
327.5817260362
 21
56.0758398687
 31
0.0
  0
LINE
  5
336
330
330
100
AcDbEntity
  8
SLD-0
100
AcDbLine
 10
338.1885690322
 20
48.8234739693
 30
0.0
 11
349.9049209389
 21
48.8234739693
 31
0.0
  0
MTEXT
  5
337
330
330
100
AcDbEntity
  8
SLD-0
100
AcDbMText
 10
342.7760690322
 20
52.0461433188
 30
0.0
 40
2.5
 41
0.0
 71
     1
 72
     1
  1
%%c
  7
SLDTEXTSTYLE0
 73
     1
 44
1.0
  0
MTEXT
  5
338
330
330
100
AcDbEntity
  8
SLD-0
100
AcDbMText
 10
346.4169572886
 20
52.0461431441
 30
0.0
 40
2.5
 41
0.0
 71
     1
 72
     1
  1
2
  7
SLDTEXTSTYLE0
 73
     1
 44
1.0
  0
ENDBLK
  5
332
330
330
100
AcDbEntity
  8
0
100
AcDbBlockEnd
  0
BLOCK
  5
33A
330
339
100
AcDbEntity
  8
0
100
AcDbBlockBegin
  2
SW_NOTE_26
 70
     0
 10
0.0
 20
0.0
 30
0.0
  3
SW_NOTE_26
  1

  0
CIRCLE
  5
33C
330
339
100
AcDbEntity
  8
SLD-0
 62
     0
100
AcDbCircle
 10
1.6551507255
 20
9.5309144759
 30
0.0
 40
9.673564734433736
  0
MTEXT
  5
33D
330
339
100
AcDbEntity
  8
SLD-0
 62
     0
100
AcDbMText
 10
1.5956019378
 20
11.4554533669
 30
0.0
 40
3.5
 41
0.0
 71
     2
 72
     1
  1
WD10
  7
SLDTEXTSTYLE0
 73
     1
 44
1.0
  0
ENDBLK
  5
33B
330
339
100
AcDbEntity
  8
0
100
AcDbBlockEnd
  0
BLOCK
  5
341
330
340
100
AcDbEntity
  8
0
100
AcDbBlockBegin
  2
SW_NOTE_27
 70
     0
 10
0.0
 20
0.0
 30
0.0
  3
SW_NOTE_27
  1

  0
MTEXT
  5
343
330
340
100
AcDbEntity
  8
SLD-0
 62
     0
100
AcDbMText
 10
32.8435895035
 20
1.6178597651
 30
0.0
 40
3.5
 41
0.0
 71
     2
 72
     1
  1
Circuit imprimé époxy (épr 1,5)
  7
SLDTEXTSTYLE0
 73
     1
 44
1.0
  0
ENDBLK
  5
342
330
340
100
AcDbEntity
  8
0
100
AcDbBlockEnd
  0
BLOCK
  5
357
330
356
100
AcDbEntity
  8
0
100
AcDbBlockBegin
  2
SW_NOTE_28
 70
     0
 10
0.0
 20
0.0
 30
0.0
  3
SW_NOTE_28
  1

  0
CIRCLE
  5
359
330
356
100
AcDbEntity
  8
SLD-0
 62
     0
100
AcDbCircle
 10
2.3437460571
 20
9.3853454434
 30
0.0
 40
9.673564734433858
  0
MTEXT
  5
35A
330
356
100
AcDbEntity
  8
SLD-0
 62
     0
100
AcDbMText
 10
2.2841972693
 20
11.3098843344
 30
0.0
 40
3.5
 41
0.0
 71
     2
 72
     1
  1
WD11
  7
SLDTEXTSTYLE0
 73
     1
 44
1.0
  0
ENDBLK
  5
358
330
356
100
AcDbEntity
  8
0
100
AcDbBlockEnd
  0
BLOCK
  5
35E
330
35D
100
AcDbEntity
  8
0
100
AcDbBlockBegin
  2
SW_NOTE_29
 70
     0
 10
0.0
 20
0.0
 30
0.0
  3
SW_NOTE_29
  1

  0
MTEXT
  5
360
330
35D
100
AcDbEntity
  8
SLD-0
 62
     0
100
AcDbMText
 10
-12.1336191702
 20
1.8758754658
 30
0.0
 40
3.5
 41
0.0
 71
     2
 72
     1
  1
CTP 2 mm
  7
SLDTEXTSTYLE0
 73
     1
 44
1.0
  0
ENDBLK
  5
35F
330
35D
100
AcDbEntity
  8
0
100
AcDbBlockEnd
  0
BLOCK
  5
372
330
371
100
AcDbEntity
  8
0
100
AcDbBlockBegin
  2
SW_NOTE_30
 70
     0
 10
0.0
 20
0.0
 30
0.0
  3
SW_NOTE_30
  1

  0
CIRCLE
  5
374
330
371
100
AcDbEntity
  8
SLD-0
 62
     0
100
AcDbCircle
 10
8.8487617941
 20
3.9086147652
 30
0.0
 40
9.673564734433617
  0
MTEXT
  5
375
330
371
100
AcDbEntity
  8
SLD-0
 62
     0
100
AcDbMText
 10
8.7892130063
 20
5.8331536562
 30
0.0
 40
3.5
 41
0.0
 71
     2
 72
     1
  1
WD13
  7
SLDTEXTSTYLE0
 73
     1
 44
1.0
  0
ENDBLK
  5
373
330
371
100
AcDbEntity
  8
0
100
AcDbBlockEnd
  0
BLOCK
  5
379
330
378
100
AcDbEntity
  8
0
100
AcDbBlockBegin
  2
SW_NOTE_31
 70
     0
 10
0.0
 20
0.0
 30
0.0
  3
SW_NOTE_31
  1

  0
MTEXT
  5
37B
330
378
100
AcDbEntity
  8
SLD-0
 62
     0
100
AcDbMText
 10
9.2224375158
 20
1.7536264457
 30
0.0
 40
3.5
 41
0.0
 71
     2
 72
     1
  1
Bois dur
  7
SLDTEXTSTYLE0
 73
     1
 44
1.0
  0
ENDBLK
  5
37A
330
378
100
AcDbEntity
  8
0
100
AcDbBlockEnd
  0
BLOCK
  5
393
330
392
100
AcDbEntity
  8
0
100
AcDbBlockBegin
  2
SW_NOTE_32
 70
     0
 10
0.0
 20
0.0
 30
0.0
  3
SW_NOTE_32
  1

  0
CIRCLE
  5
395
330
392
100
AcDbEntity
  8
SLD-0
 62
     0
100
AcDbCircle
 10
8.9115009423
 20
3.7633768913
 30
0.0
 40
9.673564734433834
  0
MTEXT
  5
396
330
392
100
AcDbEntity
  8
SLD-0
 62
     0
100
AcDbMText
 10
8.8519521546
 20
5.6879157823
 30
0.0
 40
3.5
 41
0.0
 71
     2
 72
     1
  1
WD12
  7
SLDTEXTSTYLE0
 73
     1
 44
1.0
  0
ENDBLK
  5
394
330
392
100
AcDbEntity
  8
0
100
AcDbBlockEnd
  0
BLOCK
  5
39A
330
399
100
AcDbEntity
  8
0
100
AcDbBlockBegin
  2
SW_NOTE_33
 70
     0
 10
0.0
 20
0.0
 30
0.0
  3
SW_NOTE_33
  1

  0
MTEXT
  5
39C
330
399
100
AcDbEntity
  8
SLD-0
 62
     0
100
AcDbMText
 10
11.7921318824
 20
1.729918206
 30
0.0
 40
3.5
 41
0.0
 71
     2
 72
     1
  1
CTP 3 mm
  7
SLDTEXTSTYLE0
 73
     1
 44
1.0
  0
ENDBLK
  5
39B
330
399
100
AcDbEntity
  8
0
100
AcDbBlockEnd
  0
BLOCK
  5
3DB
330
3DA
100
AcDbEntity
  8
0
100
AcDbBlockBegin
  2
SW_NOTE_34
 70
     0
 10
0.0
 20
0.0
 30
0.0
  3
SW_NOTE_34
  1

  0
CIRCLE
  5
3DD
330
3DA
100
AcDbEntity
  8
SLD-0
 62
     0
100
AcDbCircle
 10
1.2985211168
 20
9.5860157302
 30
0.0
 40
9.673564734433834
  0
MTEXT
  5
3DE
330
3DA
100
AcDbEntity
  8
SLD-0
 62
     0
100
AcDbMText
 10
1.238972329
 20
11.5105546213
 30
0.0
 40
3.5
 41
0.0
 71
     2
 72
     1
  1
WD14
  7
SLDTEXTSTYLE0
 73
     1
 44
1.0
  0
ENDBLK
  5
3DC
330
3DA
100
AcDbEntity
  8
0
100
AcDbBlockEnd
  0
BLOCK
  5
3E2
330
3E1
100
AcDbEntity
  8
0
100
AcDbBlockBegin
  2
SW_NOTE_35
 70
     0
 10
0.0
 20
0.0
 30
0.0
  3
SW_NOTE_35
  1

  0
MTEXT
  5
3E4
330
3E1
100
AcDbEntity
  8
SLD-0
 62
     0
100
AcDbMText
 10
-12.1720893923
 20
1.8469580265
 30
0.0
 40
3.5
 41
0.0
 71
     2
 72
     1
  1
CTP 2 mm
  7
SLDTEXTSTYLE0
 73
     1
 44
1.0
  0
ENDBLK
  5
3E3
330
3E1
100
AcDbEntity
  8
0
100
AcDbBlockEnd
  0
BLOCK
  5
3F0
330
3EF
100
AcDbEntity
  8
0
100
AcDbBlockBegin
  2
SW_NOTE_36
 70
     0
 10
0.0
 20
0.0
 30
0.0
  3
SW_NOTE_36
  1

  0
CIRCLE
  5
3F2
330
3EF
100
AcDbEntity
  8
SLD-0
 62
     0
100
AcDbCircle
 10
2.1001752099
 20
9.4428342546
 30
0.0
 40
9.673564734433736
  0
MTEXT
  5
3F3
330
3EF
100
AcDbEntity
  8
SLD-0
 62
     0
100
AcDbMText
 10
2.0406264221
 20
11.3673731456
 30
0.0
 40
3.5
 41
0.0
 71
     2
 72
     1
  1
WD15
  7
SLDTEXTSTYLE0
 73
     1
 44
1.0
  0
ENDBLK
  5
3F1
330
3EF
100
AcDbEntity
  8
0
100
AcDbBlockEnd
  0
BLOCK
  5
3F7
330
3F6
100
AcDbEntity
  8
0
100
AcDbBlockBegin
  2
SW_NOTE_37
 70
     0
 10
0.0
 20
0.0
 30
0.0
  3
SW_NOTE_37
  1

  0
MTEXT
  5
3F9
330
3F6
100
AcDbEntity
  8
SLD-0
 62
     0
100
AcDbMText
 10
32.8478235039
 20
1.6938815083
 30
0.0
 40
3.5
 41
0.0
 71
     2
 72
     1
  1
Circuit imprimé époxy (épr 1,5)
  7
SLDTEXTSTYLE0
 73
     1
 44
1.0
  0
ENDBLK
  5
3F8
330
3F6
100
AcDbEntity
  8
0
100
AcDbBlockEnd
  0
BLOCK
  5
419
330
418
100
AcDbEntity
  8
0
100
AcDbBlockBegin
  2
SW_NOTE_38
 70
     0
 10
0.0
 20
0.0
 30
0.0
  3
SW_NOTE_38
  1

  0
CIRCLE
  5
41B
330
418
100
AcDbEntity
  8
SLD-0
 62
     0
100
AcDbCircle
 10
9.2642109664
 20
2.7842862355
 30
0.0
 40
9.673564734433644
  0
MTEXT
  5
41C
330
418
100
AcDbEntity
  8
SLD-0
 62
     0
100
AcDbMText
 10
9.2046621786
 20
4.7088251266
 30
0.0
 40
3.5
 41
0.0
 71
     2
 72
     1
  1
WD16
  7
SLDTEXTSTYLE0
 73
     1
 44
1.0
  0
ENDBLK
  5
41A
330
418
100
AcDbEntity
  8
0
100
AcDbBlockEnd
  0
BLOCK
  5
420
330
41F
100
AcDbEntity
  8
0
100
AcDbBlockBegin
  2
SW_NOTE_39
 70
     0
 10
0.0
 20
0.0
 30
0.0
  3
SW_NOTE_39
  1

  0
MTEXT
  5
422
330
41F
100
AcDbEntity
  8
SLD-0
 62
     0
100
AcDbMText
 10
11.7775949646
 20
1.7986518912
 30
0.0
 40
3.5
 41
0.0
 71
     2
 72
     1
  1
CTP 2 mm
  7
SLDTEXTSTYLE0
 73
     1
 44
1.0
  0
ENDBLK
  5
421
330
41F
100
AcDbEntity
  8
0
100
AcDbBlockEnd
  0
BLOCK
  5
435
330
434
100
AcDbEntity
  8
0
100
AcDbBlockBegin
  2
SW_NOTE_40
 70
     0
 10
0.0
 20
0.0
 30
0.0
  3
SW_NOTE_40
  1

  0
CIRCLE
  5
437
330
434
100
AcDbEntity
  8
SLD-0
 62
     0
100
AcDbCircle
 10
9.1113510966
 20
3.2497901265
 30
0.0
 40
9.673564734433617
  0
MTEXT
  5
438
330
434
100
AcDbEntity
  8
SLD-0
 62
     0
100
AcDbMText
 10
9.0518023088
 20
5.1743290175
 30
0.0
 40
3.5
 41
0.0
 71
     2
 72
     1
  1
WD17
  7
SLDTEXTSTYLE0
 73
     1
 44
1.0
  0
ENDBLK
  5
436
330
434
100
AcDbEntity
  8
0
100
AcDbBlockEnd
  0
BLOCK
  5
43C
330
43B
100
AcDbEntity
  8
0
100
AcDbBlockBegin
  2
SW_NOTE_41
 70
     0
 10
0.0
 20
0.0
 30
0.0
  3
SW_NOTE_41
  1

  0
MTEXT
  5
43E
330
43B
100
AcDbEntity
  8
SLD-0
 62
     0
100
AcDbMText
 10
11.8697875083
 20
1.7840288205
 30
0.0
 40
3.5
 41
0.0
 71
     2
 72
     1
  1
CTP 2 mm
  7
SLDTEXTSTYLE0
 73
     1
 44
1.0
  0
ENDBLK
  5
43D
330
43B
100
AcDbEntity
  8
0
100
AcDbBlockEnd
  0
BLOCK
  5
456
330
455
100
AcDbEntity
  8
0
100
AcDbBlockBegin
  2
SW_NOTE_42
 70
     0
 10
0.0
 20
0.0
 30
0.0
  3
SW_NOTE_42
  1

  0
CIRCLE
  5
458
330
455
100
AcDbEntity
  8
SLD-0
 62
     0
100
AcDbCircle
 10
9.2189264406
 20
2.930742219
 30
0.0
 40
9.673564734433858
  0
MTEXT
  5
459
330
455
100
AcDbEntity
  8
SLD-0
 62
     0
100
AcDbMText
 10
9.1593776528
 20
4.85528111
 30
0.0
 40
3.5
 41
0.0
 71
     2
 72
     1
  1
WD18
  7
SLDTEXTSTYLE0
 73
     1
 44
1.0
  0
ENDBLK
  5
457
330
455
100
AcDbEntity
  8
0
100
AcDbBlockEnd
  0
BLOCK
  5
45D
330
45C
100
AcDbEntity
  8
0
100
AcDbBlockBegin
  2
SW_NOTE_43
 70
     0
 10
0.0
 20
0.0
 30
0.0
  3
SW_NOTE_43
  1

  0
MTEXT
  5
45F
330
45C
100
AcDbEntity
  8
SLD-0
 62
     0
100
AcDbMText
 10
11.7664511715
 20
1.7861285053
 30
0.0
 40
3.5
 41
0.0
 71
     2
 72
     1
  1
CTP 2 mm
  7
SLDTEXTSTYLE0
 73
     1
 44
1.0
  0
ENDBLK
  5
45E
330
45C
100
AcDbEntity
  8
0
100
AcDbBlockEnd
  0
BLOCK
  5
4D2
330
4D1
100
AcDbEntity
  8
0
100
AcDbBlockBegin
  2
SW_NOTE_44
 70
     0
 10
0.0
 20
0.0
 30
0.0
  3
SW_NOTE_44
  1

  0
MTEXT
  5
4D4
330
4D1
100
AcDbEntity
  8
SLD-0
 62
     0
100
AcDbMText
 10
11.8577199402
 20
1.7379565802
 30
0.0
 40
3.5
 41
0.0
 71
     2
 72
     1
  1
CTP 3 mm
  7
SLDTEXTSTYLE0
 73
     1
 44
1.0
  0
ENDBLK
  5
4D3
330
4D1
100
AcDbEntity
  8
0
100
AcDbBlockEnd
  0
BLOCK
  5
4D8
330
4D7
100
AcDbEntity
  8
0
100
AcDbBlockBegin
  2
SW_NOTE_45
 70
     0
 10
0.0
 20
0.0
 30
0.0
  3
SW_NOTE_45
  1

  0
CIRCLE
  5
4DA
330
4D7
100
AcDbEntity
  8
SLD-0
 62
     0
100
AcDbCircle
 10
1.8083302817
 20
9.5030414218
 30
0.0
 40
9.673564734433738
  0
MTEXT
  5
4DB
330
4D7
100
AcDbEntity
  8
SLD-0
 62
     0
100
AcDbMText
 10
1.7670108071
 20
11.4275803128
 30
0.0
 40
3.5
 41
0.0
 71
     2
 72
     1
  1
WF1
  7
SLDTEXTSTYLE0
 73
     1
 44
1.0
  0
ENDBLK
  5
4D9
330
4D7
100
AcDbEntity
  8
0
100
AcDbBlockEnd
  0
ENDSEC
  0
SECTION
  2
ENTITIES
  0
LINE
  5
45
330
1F
100
AcDbEntity
  8
SLD-0
370
    15
100
AcDbLine
 10
5.0
 20
836.0
 30
0.0
 11
1184.0
 21
836.0
 31
0.0
  0
LINE
  5
46
330
1F
100
AcDbEntity
  8
SLD-0
100
AcDbLine
 10
0.0
 20
841.0
 30
0.0
 11
1189.0
 21
841.0
 31
0.0
  0
LINE
  5
47
330
1F
100
AcDbEntity
  8
SLD-0
100
AcDbLine
 10
0.0
 20
841.0
 30
0.0
 11
0.0
 21
0.0
 31
0.0
  0
LINE
  5
48
330
1F
100
AcDbEntity
  8
SLD-0
100
AcDbLine
 10
0.0
 20
0.0
 30
0.0
 11
1189.0
 21
0.0
 31
0.0
  0
LINE
  5
49
330
1F
100
AcDbEntity
  8
SLD-0
100
AcDbLine
 10
1189.0
 20
841.0
 30
0.0
 11
1189.0
 21
0.0
 31
0.0
  0
LINE
  5
4A
330
1F
100
AcDbEntity
  8
SLD-0
370
    15
100
AcDbLine
 10
1184.0
 20
836.0
 30
0.0
 11
1184.0
 21
5.0
 31
0.0
  0
LINE
  5
4B
330
1F
100
AcDbEntity
  8
SLD-0
100
AcDbLine
 10
984.0
 20
25.0
 30
0.0
 11
1184.0
 21
25.0
 31
0.0
  0
LINE
  5
4C
330
1F
100
AcDbEntity
  8
SLD-0
370
    15
100
AcDbLine
 10
5.0
 20
836.0
 30
0.0
 11
5.0
 21
5.0
 31
0.0
  0
LINE
  5
4D
330
1F
100
AcDbEntity
  8
SLD-0
370
    15
100
AcDbLine
 10
984.0
 20
65.0
 30
0.0
 11
1184.0
 21
65.0
 31
0.0
  0
LINE
  5
4E
330
1F
100
AcDbEntity
  8
SLD-0
370
    15
100
AcDbLine
 10
984.0
 20
65.0
 30
0.0
 11
984.0
 21
5.0
 31
0.0
  0
LINE
  5
4F
330
1F
100
AcDbEntity
  8
SLD-0
370
    15
100
AcDbLine
 10
984.0
 20
5.0
 30
0.0
 11
1184.0
 21
5.0
 31
0.0
  0
LINE
  5
50
330
1F
100
AcDbEntity
  8
SLD-0
370
    15
100
AcDbLine
 10
5.0
 20
5.0
 30
0.0
 11
1184.0
 21
5.0
 31
0.0
  0
LINE
  5
51
330
1F
100
AcDbEntity
  8
SLD-0
370
    15
100
AcDbLine
 10
1184.0
 20
65.0
 30
0.0
 11
1184.0
 21
5.0
 31
0.0
  0
LINE
  5
52
330
1F
100
AcDbEntity
  8
SLD-0
370
    15
100
AcDbLine
 10
984.0
 20
36.0
 30
0.0
 11
1184.0
 21
36.0
 31
0.0
  0
LINE
  5
53
330
1F
100
AcDbEntity
  8
SLD-0
100
AcDbLine
 10
984.0
 20
46.0
 30
0.0
 11
1184.0
 21
46.0
 31
0.0
  0
LINE
  5
54
330
1F
100
AcDbEntity
  8
SLD-0
370
    15
100
AcDbLine
 10
1014.0
 20
36.0
 30
0.0
 11
1014.0
 21
5.0
 31
0.0
  0
LINE
  5
55
330
1F
100
AcDbEntity
  8
SLD-0
100
AcDbLine
 10
1114.0
 20
36.0
 30
0.0
 11
1114.0
 21
5.0
 31
0.0
  0
LINE
  5
56
330
1F
100
AcDbEntity
  8
SLD-0
100
AcDbLine
 10
1144.0
 20
36.0
 30
0.0
 11
1144.0
 21
5.0
 31
0.0
  0
LINE
  5
57
330
1F
100
AcDbEntity
  8
SLD-0
100
AcDbLine
 10
1134.0
 20
46.0
 30
0.0
 11
1134.0
 21
36.0
 31
0.0
  0
LINE
  5
58
330
1F
100
AcDbEntity
  8
SLD-0
100
AcDbLine
 10
1034.0
 20
46.0
 30
0.0
 11
1034.0
 21
36.0
 31
0.0
  0
LINE
  5
59
330
1F
100
AcDbEntity
  8
SLD-0
370
    15
100
AcDbLine
 10
989.2345094153
 20
32.2282868559
 30
0.0
 11
989.2345094153
 21
28.8178371841
 31
0.0
  0
LINE
  5
5A
330
1F
100
AcDbEntity
  8
SLD-0
370
    15
100
AcDbLine
 10
989.2345094153
 20
28.8178371841
 30
0.0
 11
997.5942701962
 21
27.3205665965
 31
0.0
  0
LINE
  5
5B
330
1F
100
AcDbEntity
  8
SLD-0
370
    15
100
AcDbLine
 10
997.5942701962
 20
27.3205665965
 30
0.0
 11
997.5942701962
 21
33.7255574435
 31
0.0
  0
LINE
  5
5C
330
1F
100
AcDbEntity
  8
SLD-0
370
    15
100
AcDbLine
 10
997.5942701962
 20
33.7255574435
 30
0.0
 11
989.2345094153
 21
32.2282868559
 31
0.0
  0
LINE
  5
5D
330
1F
100
AcDbEntity
  8
SLD-0
100
AcDbLine
 10
987.4952668112
 20
30.52306202
 30
0.0
 11
1007.5326161274
 21
30.52306202
 31
0.0
  0
LINE
  5
5E
330
1F
100
AcDbEntity
  8
SLD-0
100
AcDbLine
 10
1002.9178989522
 20
35.2306610135
 30
0.0
 11
1002.9178989522
 21
25.9951172586
 31
0.0
  0
LINE
  5
5F
330
1F
100
AcDbEntity
  8
SLD-0
100
AcDbLine
 10
1034.0
 20
836.0
 30
0.0
 11
1034.0
 21
416.0
 31
0.0
  0
LINE
  5
60
330
1F
100
AcDbEntity
  8
SLD-0
100
AcDbLine
 10
884.0
 20
836.0
 30
0.0
 11
884.0
 21
216.0
 31
0.0
  0
LINE
  5
61
330
1F
100
AcDbEntity
  8
SLD-0
100
AcDbLine
 10
884.0
 20
416.0
 30
0.0
 11
1184.0
 21
416.0
 31
0.0
  0
LINE
  5
62
330
1F
100
AcDbEntity
  8
SLD-0
100
AcDbLine
 10
884.0
 20
216.0
 30
0.0
 11
1184.0
 21
216.0
 31
0.0
  0
CIRCLE
  5
63
330
1F
100
AcDbEntity
  8
SLD-0
370
    15
100
AcDbCircle
 10
1002.9178989522
 20
30.52306202
 30
0.0
 40
1.705224835905099
  0
CIRCLE
  5
64
330
1F
100
AcDbEntity
  8
SLD-0
370
    15
100
AcDbCircle
 10
1002.9178989522
 20
30.52306202
 30
0.0
 40
3.202495423528952
  0
MTEXT
  5
66
330
1F
100
AcDbEntity
  8
SLD-0
100
AcDbMText
 10
924.9686930509
 20
831.0126607134
 30
0.0
 40
4.0
 41
0.0
 71
     1
 72
     1
  1
\LSupport servo de volets
  7
SLDTEXTSTYLE0
 73
     1
 44
1.0
  0
MTEXT
  5
67
330
1F
100
AcDbEntity
  8
SLD-0
100
AcDbMText
 10
1093.3740101703
 20
251.7065246519
 30
0.0
 40
4.0
 41
0.0
 71
     1
 72
     1
  1
\LSupport train d'atterrissage
  7
SLDTEXTSTYLE0
 73
     1
 44
1.0
  0
MTEXT
  5
68
330
1F
100
AcDbEntity
  8
SLD-0
100
AcDbMText
 10
1083.7690862575
 20
59.486599869
 30
0.0
 40
7.4083333333
 41
0.0
 71
     2
 72
     1
  1
Corsair F4U - Ailes - Longerons, divers
  7
SLDTEXTSTYLE0
 73
     1
 44
1.0
  0
MTEXT
  5
69
330
1F
100
AcDbEntity
  8
SLD-0
100
AcDbMText
 10
1164.5204305957
 20
19.1675498406
 30
0.0
 40
7.4083333333
 41
0.0
 71
     2
 72
     1
  1
1/1
  7
SLDTEXTSTYLE0
 73
     1
 44
1.0
  0
MTEXT
  5
6A
330
1F
100
AcDbEntity
  8
SLD-0
100
AcDbMText
 10
1129.0560667454
 20
18.8819853663
 30
0.0
 40
7.4083333333
 41
0.0
 71
     2
 72
     1
  1
-
  7
SLDTEXTSTYLE0
 73
     1
 44
1.0
  0
MTEXT
  5
6B
330
1F
100
AcDbEntity
  8
SLD-0
100
AcDbMText
 10
1064.3727480253
 20
19.1675498406
 30
0.0
 40
7.4083333333
 41
0.0
 71
     2
 72
     1
  1
F4U-004
  7
SLDTEXTSTYLE0
 73
     1
 44
1.0
  0
MTEXT
  5
6C
330
1F
100
AcDbEntity
  8
SLD-0
100
AcDbMText
 10
993.2511186965
 20
19.1675498406
 30
0.0
 40
7.4083333333
 41
0.0
 71
     1
 72
     1
  1
A0
  7
SLDTEXTSTYLE0
 73
     1
 44
1.0
  0
MTEXT
  5
6D
330
1F
100
AcDbEntity
  8
SLD-0
100
AcDbMText
 10
1154.6221643513
 20
32.833460554
 30
0.0
 40
4.2333333333
 41
0.0
 71
     1
 72
     1
  1
Planche
  7
SLDTEXTSTYLE0
 73
     1
 44
1.0
  0
MTEXT
  5
6E
330
1F
100
AcDbEntity
  8
SLD-0
100
AcDbMText
 10
1121.8789769363
 20
32.833460554
 30
0.0
 40
4.2333333333
 41
0.0
 71
     1
 72
     1
  1
Indice
  7
SLDTEXTSTYLE0
 73
     1
 44
1.0
  0
MTEXT
  5
6F
330
1F
100
AcDbEntity
  8
SLD-0
100
AcDbMText
 10
1054.2138508107
 20
32.833460554
 30
0.0
 40
4.2333333333
 41
0.0
 71
     1
 72
     1
  1
Numéro
  7
SLDTEXTSTYLE0
 73
     1
 44
1.0
  0
MTEXT
  5
70
330
1F
100
AcDbEntity
  8
SLD-0
100
AcDbMText
 10
1136.8535439899
 20
43.441592113
 30
0.0
 40
4.2333333333
 41
0.0
 71
     1
 72
     1
  1
Ech: 1/1
  7
SLDTEXTSTYLE0
 73
     1
 44
1.0
  0
MTEXT
  5
71
330
1F
100
AcDbEntity
  8
SLD-0
100
AcDbMText
 10
1037.402310624
 20
43.441592113
 30
0.0
 40
4.2333333333
 41
0.0
 71
     1
 72
     1
  1
Dess: GOSSET Laurent
  7
SLDTEXTSTYLE0
 73
     1
 44
1.0
  0
MTEXT
  5
72
330
1F
100
AcDbEntity
  8
SLD-0
100
AcDbMText
 10
986.4832791407
 20
43.441592113
 30
0.0
 40
4.2333333333
 41
0.0
 71
     1
 72
     1
  1
Date: 25/01/2012
  7
SLDTEXTSTYLE0
 73
     1
 44
1.0
  0
CIRCLE
  5
73
330
1F
100
AcDbEntity
  8
0
  6
Continuous
 62
     7
370
    15
100
AcDbCircle
 10
78.6266077153
 20
772.5971579111
 30
0.0
 40
6.0
  0
CIRCLE
  5
74
330
1F
100
AcDbEntity
  8
0
  6
Continuous
 62
     7
370
    15
100
AcDbCircle
 10
128.6266077153
 20
772.5971579111
 30
0.0
 40
6.0
  0
LINE
  5
75
330
1F
100
AcDbEntity
  8
0
  6
Continuous
 62
     7
370
    15
100
AcDbLine
 10
152.4494315231
 20
758.5970627419
 30
0.0
 11
170.2958966339
 21
809.4069229714
 31
0.0
  0
LINE
  5
76
330
1F
100
AcDbEntity
  8
0
  6
Continuous
 62
     7
370
    15
100
AcDbLine
 10
54.8036719406
 20
758.5970627419
 30
0.0
 11
152.4494315231
 21
758.5970627419
 31
0.0
  0
LINE
  5
77
330
1F
100
AcDbEntity
  8
0
  6
Continuous
 62
     7
370
    15
100
AcDbLine
 10
36.9573260391
 20
809.4069229714
 30
0.0
 11
54.8036719406
 21
758.5970627419
 31
0.0
  0
LINE
  5
78
330
1F
100
AcDbEntity
  8
0
  6
Continuous
 62
     7
370
    15
100
AcDbLine
 10
69.7998429382
 20
809.4069229714
 30
0.0
 11
36.9573260391
 21
809.4069229714
 31
0.0
  0
ARC
  5
79
330
1F
100
AcDbEntity
  8
0
  6
Continuous
 62
     7
370
    15
100
AcDbCircle
 10
103.6266077153
 20
853.4069865463
 30
0.0
 40
55.50000000000011
100
AcDbArc
 50
232.4472736583
 51
307.5527263417
  0
LINE
  5
7A
330
1F
100
AcDbEntity
  8
0
  6
Continuous
 62
     7
370
    15
100
AcDbLine
 10
93.6265612686
 20
776.5971886269
 30
0.0
 11
113.6266614044
 21
776.5971886269
 31
0.0
  0
LINE
  5
7B
330
1F
100
AcDbEntity
  8
0
  6
Continuous
 62
     7
370
    15
100
AcDbLine
 10
113.6266614044
 20
776.5971886269
 30
0.0
 11
113.6266614044
 21
778.5970436685
 31
0.0
  0
LINE
  5
7C
330
1F
100
AcDbEntity
  8
0
  6
Continuous
 62
     7
370
    15
100
AcDbLine
 10
113.6266614044
 20
778.5970436685
 30
0.0
 11
93.6265612686
 21
778.5970436685
 31
0.0
  0
LINE
  5
7D
330
1F
100
AcDbEntity
  8
0
  6
Continuous
 62
     7
370
    15
100
AcDbLine
 10
93.6265612686
 20
778.5970436685
 30
0.0
 11
93.6265612686
 21
776.5971886269
 31
0.0
  0
LINE
  5
7E
330
1F
100
AcDbEntity
  8
0
  6
Continuous
 62
     7
370
    15
100
AcDbLine
 10
170.2958966339
 20
809.4069229714
 30
0.0
 11
137.4533797348
 21
809.4069229714
 31
0.0
  0
INSERT
  5
84
330
1F
100
AcDbEntity
  8
SLD-0
100
AcDbBlockReference
  2
SW_NOTE_0
 10
34.7596842748
 20
778.7243444471
 30
0.0
  0
LEADER
  5
8E
330
1F
100
AcDbEntity
  8
SLD-0
100
AcDbLeader
  3
SLDDIMSTYLE0
 76
     2
 10
57.1654716441
 20
786.7060182497
 30
0.0
 10
34.7596842748
 20
778.7243444471
 30
0.0
  0
INSERT
  5
93
102
{ACAD_REACTORS
330
94
102
}
330
1F
100
AcDbEntity
  8
SLD-0
100
AcDbBlockReference
  2
SW_NOTE_1
 10
37.7941176471
 20
788.2352941176
 30
0.0
  0
LEADER
  5
94
330
1F
100
AcDbEntity
  8
SLD-0
100
AcDbLeader
  3
SLDDIMSTYLE0
 73
     2
 76
     2
 10
57.2624771271
 20
786.7069556754
 30
0.0
 10
37.7941176471
 20
788.2352941176
 30
0.0
340
93
  0
CIRCLE
  5
95
330
1F
100
AcDbEntity
  8
0
  6
Continuous
 62
     7
370
    15
100
AcDbCircle
 10
80.7498241283
 20
619.8004572951
 30
0.0
 40
6.000000000000014
  0
LINE
  5
96
330
1F
100
AcDbEntity
  8
0
  6
Continuous
 62
     7
370
    15
100
AcDbLine
 10
25.3905476401
 20
695.5824061079
 30
0.0
 11
54.8216523002
 21
611.7904349012
 31
0.0
  0
LINE
  5
97
330
1F
100
AcDbEntity
  8
0
  6
Continuous
 62
     7
370
    15
100
AcDbLine
 10
77.0978154014
 20
715.0538130445
 30
0.0
 11
25.3905476401
 21
695.5824061079
 31
0.0
  0
LINE
  5
98
330
1F
100
AcDbEntity
  8
0
  6
Continuous
 62
     7
370
    15
100
AcDbLine
 10
134.4017208884
 20
715.0538130445
 30
0.0
 11
77.0978154014
 21
715.0538130445
 31
0.0
  0
LINE
  5
99
330
1F
100
AcDbEntity
  8
0
  6
Continuous
 62
     7
370
    15
100
AcDbLine
 10
186.1091078589
 20
695.5824061079
 30
0.0
 11
134.4017208884
 21
715.0538130445
 31
0.0
  0
LINE
  5
9A
330
1F
100
AcDbEntity
  8
0
  6
Continuous
 62
     7
370
    15
100
AcDbLine
 10
156.6780031989
 20
611.7904349012
 30
0.0
 11
186.1091078589
 21
695.5824061079
 31
0.0
  0
LINE
  5
9B
330
1F
100
AcDbEntity
  8
0
  6
Continuous
 62
     7
370
    15
100
AcDbLine
 10
54.8216523002
 20
611.7904349012
 30
0.0
 11
156.6780031989
 21
611.7904349012
 31
0.0
  0
CIRCLE
  5
9C
330
1F
100
AcDbEntity
  8
0
  6
Continuous
 62
     7
370
    15
100
AcDbCircle
 10
130.7498241283
 20
619.8004572951
 30
0.0
 40
6.000000000000028
  0
LINE
  5
9D
330
1F
100
AcDbEntity
  8
0
  6
Continuous
 62
     7
370
    15
100
AcDbLine
 10
160.7984722922
 20
668.7853499098
 30
0.0
 11
165.5159415076
 21
667.128340785
 31
0.0
  0
LINE
  5
9E
330
1F
100
AcDbEntity
  8
0
  6
Continuous
 62
     7
370
    15
100
AcDbLine
 10
163.7809695075
 20
677.2766276045
 30
0.0
 11
160.7984722922
 21
668.7853499098
 31
0.0
  0
LINE
  5
9F
330
1F
100
AcDbEntity
  8
0
  6
Continuous
 62
     7
370
    15
100
AcDbLine
 10
121.3238657783
 20
692.1892328901
 30
0.0
 11
163.7809695075
 21
677.2766276045
 31
0.0
  0
LINE
  5
A0
330
1F
100
AcDbEntity
  8
0
  6
Continuous
 62
     7
370
    15
100
AcDbLine
 10
113.370460398
 20
669.5454283399
 30
0.0
 11
121.3238657783
 21
692.1892328901
 31
0.0
  0
LINE
  5
A1
330
1F
100
AcDbEntity
  8
0
  6
Continuous
 62
     7
370
    15
100
AcDbLine
 10
155.8275641273
 20
654.6328230543
 30
0.0
 11
113.370460398
 21
669.5454283399
 31
0.0
  0
LINE
  5
A2
330
1F
100
AcDbEntity
  8
0
  6
Continuous
 62
     7
370
    15
100
AcDbLine
 10
163.5275305579
 20
661.4673300428
 30
0.0
 11
158.8100613425
 21
663.1243391676
 31
0.0
  0
LINE
  5
A3
330
1F
100
AcDbEntity
  8
0
  6
Continuous
 62
     7
370
    15
100
AcDbLine
 10
165.5159415076
 20
667.128340785
 30
0.0
 11
163.5275305579
 21
661.4673300428
 31
0.0
  0
CIRCLE
  5
A4
330
1F
100
AcDbEntity
  8
0
  6
Continuous
 62
     7
370
    15
100
AcDbCircle
 10
164.1513825349
 20
670.7872501299
 30
0.0
 40
1.250000000000398
  0
CIRCLE
  5
A5
330
1F
100
AcDbEntity
  8
0
  6
Continuous
 62
     7
370
    15
100
AcDbCircle
 10
160.1746749936
 20
659.4653334577
 30
0.0
 40
1.25
  0
CIRCLE
  5
A6
330
1F
100
AcDbEntity
  8
0
  6
Continuous
 62
     7
370
    15
100
AcDbCircle
 10
116.9767297342
 20
687.3568648851
 30
0.0
 40
1.250000000000426
  0
CIRCLE
  5
A7
330
1F
100
AcDbEntity
  8
0
  6
Continuous
 62
     7
370
    15
100
AcDbCircle
 10
113.000022193
 20
676.034948213
 30
0.0
 40
1.250000000000412
  0
CIRCLE
  5
A8
330
1F
100
AcDbEntity
  8
0
  6
Continuous
 62
     7
370
    15
100
AcDbCircle
 10
98.4996260637
 20
676.034948213
 30
0.0
 40
1.249999999999972
  0
CIRCLE
  5
A9
330
1F
100
AcDbEntity
  8
0
  6
Continuous
 62
     7
370
    15
100
AcDbCircle
 10
94.5229185224
 20
687.3568648851
 30
0.0
 40
1.250000000000185
  0
CIRCLE
  5
AA
330
1F
100
AcDbEntity
  8
0
  6
Continuous
 62
     7
370
    15
100
AcDbCircle
 10
51.324973263
 20
659.4653334577
 30
0.0
 40
1.249999999999979
  0
CIRCLE
  5
AB
330
1F
100
AcDbEntity
  8
0
  6
Continuous
 62
     7
370
    15
100
AcDbCircle
 10
47.3482657217
 20
670.7872501299
 30
0.0
 40
1.249999999999979
  0
LINE
  5
AC
330
1F
100
AcDbEntity
  8
0
  6
Continuous
 62
     7
370
    15
100
AcDbLine
 10
52.6894749473
 20
663.1243391676
 30
0.0
 11
47.9720057319
 21
661.4673300428
 31
0.0
  0
LINE
  5
AD
330
1F
100
AcDbEntity
  8
0
  6
Continuous
 62
     7
370
    15
100
AcDbLine
 10
55.6720913718
 20
654.6328230543
 30
0.0
 11
52.6894749473
 21
663.1243391676
 31
0.0
  0
LINE
  5
AE
330
1F
100
AcDbEntity
  8
0
  6
Continuous
 62
     7
370
    15
100
AcDbLine
 10
98.1291951011
 20
669.5454283399
 30
0.0
 11
55.6720913718
 21
654.6328230543
 31
0.0
  0
LINE
  5
AF
330
1F
100
AcDbEntity
  8
0
  6
Continuous
 62
     7
370
    15
100
AcDbLine
 10
90.1757897208
 20
692.1892328901
 30
0.0
 11
98.1291951011
 21
669.5454283399
 31
0.0
  0
LINE
  5
B0
330
1F
100
AcDbEntity
  8
0
  6
Continuous
 62
     7
370
    15
100
AcDbLine
 10
47.7186859916
 20
677.2766276045
 30
0.0
 11
90.1757897208
 21
692.1892328901
 31
0.0
  0
LINE
  5
B1
330
1F
100
AcDbEntity
  8
0
  6
Continuous
 62
     7
370
    15
100
AcDbLine
 10
45.9837139914
 20
667.128340785
 30
0.0
 11
50.7011832068
 21
668.7853499098
 31
0.0
  0
LINE
  5
B2
330
1F
100
AcDbEntity
  8
0
  6
Continuous
 62
     7
370
    15
100
AcDbLine
 10
47.9720057319
 20
661.4673300428
 30
0.0
 11
45.9837139914
 21
667.128340785
 31
0.0
  0
LINE
  5
B3
330
1F
100
AcDbEntity
  8
0
  6
Continuous
 62
     7
370
    15
100
AcDbLine
 10
95.7497776816
 20
625.8003874464
 30
0.0
 11
95.7497776816
 21
623.8005324049
 31
0.0
  0
LINE
  5
B4
330
1F
100
AcDbEntity
  8
0
  6
Continuous
 62
     7
370
    15
100
AcDbLine
 10
95.7497776816
 20
623.8005324049
 30
0.0
 11
115.7498778174
 21
623.8005324049
 31
0.0
  0
LINE
  5
B5
330
1F
100
AcDbEntity
  8
0
  6
Continuous
 62
     7
370
    15
100
AcDbLine
 10
115.7498778174
 20
623.8005324049
 30
0.0
 11
115.7498778174
 21
625.8003874464
 31
0.0
  0
LINE
  5
B6
330
1F
100
AcDbEntity
  8
0
  6
Continuous
 62
     7
370
    15
100
AcDbLine
 10
115.7498778174
 20
625.8003874464
 30
0.0
 11
95.7497776816
 21
625.8003874464
 31
0.0
  0
CIRCLE
  5
B7
330
1F
100
AcDbEntity
  8
0
  6
Continuous
 62
     7
370
    15
100
AcDbCircle
 10
105.7498241283
 20
662.4786687217
 30
0.0
 40
1.500000000000057
  0
ARC
  5
B8
330
1F
100
AcDbEntity
  8
0
  6
Continuous
 62
     7
370
    15
100
AcDbCircle
 10
90.7498241283
 20
642.4786687217
 30
0.0
 40
4.999999999999886
100
AcDbArc
 50
180.0
 51
270.0
  0
LINE
  5
B9
330
1F
100
AcDbEntity
  8
0
  6
Continuous
 62
     7
370
    15
100
AcDbLine
 10
120.7498730491
 20
637.4786062879
 30
0.0
 11
90.74978245
 21
637.4786062879
 31
0.0
  0
ARC
  5
BA
330
1F
100
AcDbEntity
  8
0
  6
Continuous
 62
     7
370
    15
100
AcDbCircle
 10
120.7498241283
 20
642.4786687217
 30
0.0
 40
4.999999999999886
100
AcDbArc
 50
270.0
 51
0.0
  0
LINE
  5
BB
330
1F
100
AcDbEntity
  8
0
  6
Continuous
 62
     7
370
    15
100
AcDbLine
 10
125.7498682807
 20
647.4785967512
 30
0.0
 11
125.7498682807
 21
642.4787207288
 31
0.0
  0
ARC
  5
BC
330
1F
100
AcDbEntity
  8
0
  6
Continuous
 62
     7
370
    15
100
AcDbCircle
 10
120.7498241283
 20
647.4786687217
 30
0.0
 40
4.999999999999886
100
AcDbArc
 50
0.0
 51
90.0
  0
LINE
  5
BD
330
1F
100
AcDbEntity
  8
0
  6
Continuous
 62
     7
370
    15
100
AcDbLine
 10
90.74978245
 20
652.4787111921
 30
0.0
 11
120.7498730491
 21
652.4787111921
 31
0.0
  0
ARC
  5
BE
330
1F
100
AcDbEntity
  8
0
  6
Continuous
 62
     7
370
    15
100
AcDbCircle
 10
90.7498241283
 20
647.4786687217
 30
0.0
 40
4.999999999999886
100
AcDbArc
 50
90.0
 51
180.0
  0
LINE
  5
BF
330
1F
100
AcDbEntity
  8
0
  6
Continuous
 62
     7
370
    15
100
AcDbLine
 10
85.7497872184
 20
642.4787207288
 30
0.0
 11
85.7497872184
 21
647.4785967512
 31
0.0
  0
LINE
  5
C0
330
1F
100
AcDbEntity
  8
0
  6
Continuous
 62
     7
370
    15
100
AcDbLine
 10
158.8100613425
 20
663.1243391676
 30
0.0
 11
155.8275641273
 21
654.6328230543
 31
0.0
  0
LINE
  5
C1
330
1F
100
AcDbEntity
  8
0
  6
Continuous
 62
     7
370
    15
100
AcDbLine
 10
50.7011832068
 20
668.7853499098
 30
0.0
 11
47.7186859916
 21
677.2766276045
 31
0.0
  0
INSERT
  5
C7
102
{ACAD_REACTORS
330
C8
102
}
330
1F
100
AcDbEntity
  8
SLD-0
100
AcDbBlockReference
  2
SW_NOTE_2
 10
37.4934524162
 20
631.3891642725
 30
0.0
  0
LEADER
  5
C8
330
1F
100
AcDbEntity
  8
SLD-0
100
AcDbLeader
  3
SLDDIMSTYLE0
 73
     2
 76
     2
 10
64.8685452407
 20
638.3429299323
 30
0.0
 10
37.4934524162
 20
631.3891642725
 30
0.0
340
C7
  0
INSERT
  5
CD
102
{ACAD_REACTORS
330
CE
102
}
330
1F
100
AcDbEntity
  8
SLD-0
100
AcDbBlockReference
  2
SW_NOTE_3
 10
38.7352941176
 20
642.1176470588
 30
0.0
  0
LEADER
  5
CE
330
1F
100
AcDbEntity
  8
SLD-0
100
AcDbLeader
  3
SLDDIMSTYLE0
 73
     2
 76
     2
 10
64.8322325412
 20
638.4643574933
 30
0.0
 10
38.7352941176
 20
642.1176470588
 30
0.0
340
CD
  0
LINE
  5
CF
330
1F
100
AcDbEntity
  8
0
  6
Continuous
 62
     7
370
    15
100
AcDbLine
 10
47.6713152113
 20
519.3525083791
 30
0.0
 11
41.584965724
 21
517.1316393148
 31
0.0
  0
ARC
  5
D0
330
1F
100
AcDbEntity
  8
0
  6
Continuous
 62
     7
370
    15
100
AcDbCircle
 10
37.3876379322
 20
547.5349842434
 30
0.0
 40
30.00000000000002
100
AcDbArc
 50
290.046850548
 51
340.7147273043
  0
ARC
  5
D1
330
1F
100
AcDbEntity
  8
0
  6
Continuous
 62
     7
370
    15
100
AcDbCircle
 10
112.8985079967
 20
521.1132412635
 30
0.0
 40
49.99999999999998
100
AcDbArc
 50
19.2852726957
 51
160.7147273043
  0
ARC
  5
D2
330
1F
100
AcDbEntity
  8
0
  6
Continuous
 62
     7
370
    15
100
AcDbCircle
 10
188.4093780613
 20
547.5349842434
 30
0.0
 40
30.00000000000007
100
AcDbArc
 50
199.2852726957
 51
249.953149452
  0
LINE
  5
D3
330
1F
100
AcDbEntity
  8
0
  6
Continuous
 62
     7
370
    15
100
AcDbLine
 10
184.3650312605
 20
517.0758493673
 30
0.0
 11
178.1257362547
 21
519.3525083791
 31
0.0
  0
CIRCLE
  5
D4
330
1F
100
AcDbEntity
  8
0
  6
Continuous
 62
     7
370
    15
100
AcDbCircle
 10
112.8985079968
 20
521.1132412635
 30
0.0
 40
32.9999999999999
  0
LINE
  5
D5
330
1F
100
AcDbEntity
  8
0
  6
Continuous
 62
     7
370
    15
100
AcDbLine
 10
41.584965724
 20
517.1316393148
 30
0.0
 11
57.7485532942
 21
471.1132772695
 31
0.0
  0
LINE
  5
D6
330
1F
100
AcDbEntity
  8
0
  6
Continuous
 62
     7
370
    15
100
AcDbLine
 10
168.2211132231
 20
471.1132772695
 30
0.0
 11
184.3650312605
 21
517.0758493673
 31
0.0
  0
LINE
  5
D7
330
1F
100
AcDbEntity
  8
0
  6
Continuous
 62
     7
370
    15
100
AcDbLine
 10
57.7485532942
 20
471.1132772695
 30
0.0
 11
168.2211132231
 21
471.1132772695
 31
0.0
  0
INSERT
  5
DD
330
1F
100
AcDbEntity
  8
SLD-0
100
AcDbBlockReference
  2
SW_NOTE_4
 10
40.2225741897
 20
490.7305128978
 30
0.0
  0
LEADER
  5
DE
330
1F
100
AcDbEntity
  8
SLD-0
100
AcDbLeader
  3
SLDDIMSTYLE0
 76
     2
 10
61.2489953491
 20
499.4980721062
 30
0.0
 10
40.2225741897
 20
490.7305128978
 30
0.0
  0
INSERT
  5
E3
102
{ACAD_REACTORS
330
E4
102
}
330
1F
100
AcDbEntity
  8
SLD-0
100
AcDbBlockReference
  2
SW_NOTE_5
 10
40.6176470588
 20
500.8235294118
 30
0.0
  0
LEADER
  5
E4
330
1F
100
AcDbEntity
  8
SLD-0
100
AcDbLeader
  3
SLDDIMSTYLE0
 73
     2
 76
     2
 10
61.2173690417
 20
499.5160117931
 30
0.0
 10
40.6176470588
 20
500.8235294118
 30
0.0
340
E3
  0
CIRCLE
  5
E5
330
1F
100
AcDbEntity
  8
0
  6
Continuous
 62
     7
370
    15
100
AcDbCircle
 10
247.8415862665
 20
772.5971579111
 30
0.0
 40
6.0
  0
LINE
  5
E6
330
1F
100
AcDbEntity
  8
0
  6
Continuous
 62
     7
370
    15
100
AcDbLine
 10
291.1006167547
 20
809.4069229714
 30
0.0
 11
256.6683247701
 21
809.4069229714
 31
0.0
  0
LINE
  5
E7
330
1F
100
AcDbEntity
  8
0
  6
Continuous
 62
     7
370
    15
100
AcDbLine
 10
490.2244761602
 20
738.0508648507
 30
0.0
 11
291.1006167547
 21
809.4069229714
 31
0.0
  0
ARC
  5
E8
330
1F
100
AcDbEntity
  8
0
  6
Continuous
 62
     7
370
    15
100
AcDbCircle
 10
575.6072873831
 20
976.3172426122
 30
0.0
 40
253.1029022096359
100
AcDbArc
 50
250.2848327957
 51
278.1942919828
  0
LINE
  5
E9
330
1F
100
AcDbEntity
  8
0
  6
Continuous
 62
     7
370
    15
100
AcDbLine
 10
652.7708724157
 20
731.7151295297
 30
0.0
 11
611.6820529119
 21
725.7982956521
 31
0.0
  0
LINE
  5
EA
330
1F
100
AcDbEntity
  8
0
  6
Continuous
 62
     7
370
    15
100
AcDbLine
 10
656.402225794
 20
709.6115814797
 30
0.0
 11
652.7708724157
 21
731.7151295297
 31
0.0
  0
LINE
  5
EB
330
1F
100
AcDbEntity
  8
0
  6
Continuous
 62
     7
370
    15
100
AcDbLine
 10
602.9359057562
 20
701.0189758889
 30
0.0
 11
656.402225794
 21
709.6115814797
 31
0.0
  0
ARC
  5
EC
330
1F
100
AcDbEntity
  8
0
  6
Continuous
 62
     7
370
    15
100
AcDbCircle
 10
571.3346632976
 20
988.7826971163
 30
0.0
 40
289.4936433723308
100
AcDbArc
 50
252.4174095794
 51
276.2669132528
  0
ARC
  5
ED
330
1F
100
AcDbEntity
  8
0
  6
Continuous
 62
     7
370
    15
100
AcDbCircle
 10
480.8635499702
 20
703.2806479578
 30
0.0
 40
10.00000000000023
100
AcDbArc
 50
72.4174095794
 51
124.3282330524
  0
LINE
  5
EE
330
1F
100
AcDbEntity
  8
0
  6
Continuous
 62
     7
370
    15
100
AcDbLine
 10
469.285126032
 20
707.4832188241
 30
0.0
 11
475.2241328375
 21
711.5389572732
 31
0.0
  0
ARC
  5
EF
330
1F
100
AcDbEntity
  8
0
  6
Continuous
 62
     7
370
    15
100
AcDbCircle
 10
448.5737115928
 20
737.8127251926
 30
0.0
 40
36.72660466828385
100
AcDbArc
 50
251.4004660137
 51
304.3282330524
  0
LINE
  5
F0
330
1F
100
AcDbEntity
  8
0
  6
Continuous
 62
     7
370
    15
100
AcDbLine
 10
271.6644957678
 20
758.5970627419
 30
0.0
 11
436.8597224371
 21
703.0042873971
 31
0.0
  0
LINE
  5
F1
330
1F
100
AcDbEntity
  8
0
  6
Continuous
 62
     7
370
    15
100
AcDbLine
 10
222.8416159765
 20
758.5970627419
 30
0.0
 11
271.6644957678
 21
758.5970627419
 31
0.0
  0
LINE
  5
F2
330
1F
100
AcDbEntity
  8
0
  6
Continuous
 62
     7
370
    15
100
AcDbLine
 10
222.8416159765
 20
797.907041227
 30
0.0
 11
222.8416159765
 21
758.5970627419
 31
0.0
  0
ARC
  5
F3
330
1F
100
AcDbEntity
  8
0
  6
Continuous
 62
     7
370
    15
100
AcDbCircle
 10
222.8415862665
 20
853.4069865463
 30
0.0
 40
55.50000000000009
100
AcDbArc
 50
270.0
 51
307.5527263417
  0
INSERT
  5
F8
330
1F
100
AcDbEntity
  8
SLD-0
100
AcDbBlockReference
  2
SW_NOTE_6
 10
445.8529411765
 20
761.7647058824
 30
0.0
  0
LEADER
  5
F9
330
1F
100
AcDbEntity
  8
SLD-0
100
AcDbLeader
  3
SLDDIMSTYLE0
 76
     2
 10
433.6405396502
 20
750.0639332989
 30
0.0
 10
445.8529411765
 20
761.7647058824
 30
0.0
  0
INSERT
  5
FF
330
1F
100
AcDbEntity
  8
SLD-0
100
AcDbBlockReference
  2
SW_NOTE_7
 10
444.3453465494
 20
767.4727159303
 30
0.0
  0
LEADER
  5
100
330
1F
100
AcDbEntity
  8
SLD-0
100
AcDbLeader
  3
SLDDIMSTYLE0
 76
     2
 10
433.6445041441
 20
750.0674188147
 30
0.0
 10
444.3453465494
 20
767.4727159303
 30
0.0
  0
CIRCLE
  5
101
330
1F
100
AcDbEntity
  8
0
  6
Continuous
 62
     7
370
    15
100
AcDbCircle
 10
253.2637700464
 20
619.8004572951
 30
0.0
 40
5.999999999999972
  0
CIRCLE
  5
102
330
1F
100
AcDbEntity
  8
0
  6
Continuous
 62
     7
370
    15
100
AcDbCircle
 10
520.124613532
 20
581.8259256288
 30
0.0
 40
0.9999999999998863
  0
CIRCLE
  5
103
330
1F
100
AcDbEntity
  8
0
  6
Continuous
 62
     7
370
    15
100
AcDbCircle
 10
619.8771466078
 20
577.7365656563
 30
0.0
 40
0.9999999999998863
  0
LINE
  5
104
330
1F
100
AcDbEntity
  8
0
  6
Continuous
 62
     7
370
    15
100
AcDbLine
 10
235.8843728003
 20
669.5454283399
 30
0.0
 11
278.3414765295
 21
654.6328230543
 31
0.0
  0
LINE
  5
105
330
1F
100
AcDbEntity
  8
0
  6
Continuous
 62
     7
370
    15
100
AcDbLine
 10
278.3414765295
 20
654.6328230543
 30
0.0
 11
281.3240929541
 21
663.1243391676
 31
0.0
  0
LINE
  5
106
330
1F
100
AcDbEntity
  8
0
  6
Continuous
 62
     7
370
    15
100
AcDbLine
 10
281.3240929541
 20
663.1243391676
 30
0.0
 11
286.0415621695
 21
661.4673300428
 31
0.0
  0
LINE
  5
107
330
1F
100
AcDbEntity
  8
0
  6
Continuous
 62
     7
370
    15
100
AcDbLine
 10
286.0415621695
 20
661.4673300428
 30
0.0
 11
288.0298539099
 21
667.128340785
 31
0.0
  0
LINE
  5
108
330
1F
100
AcDbEntity
  8
0
  6
Continuous
 62
     7
370
    15
100
AcDbLine
 10
288.0298539099
 20
667.128340785
 30
0.0
 11
283.3123846945
 21
668.7853499098
 31
0.0
  0
LINE
  5
109
330
1F
100
AcDbEntity
  8
0
  6
Continuous
 62
     7
370
    15
100
AcDbLine
 10
283.3123846945
 20
668.7853499098
 30
0.0
 11
286.2950011191
 21
677.2766276045
 31
0.0
  0
LINE
  5
10A
330
1F
100
AcDbEntity
  8
0
  6
Continuous
 62
     7
370
    15
100
AcDbLine
 10
286.2950011191
 20
677.2766276045
 30
0.0
 11
243.8377781805
 21
692.1892328901
 31
0.0
  0
LINE
  5
10B
330
1F
100
AcDbEntity
  8
0
  6
Continuous
 62
     7
370
    15
100
AcDbLine
 10
243.8377781805
 20
692.1892328901
 30
0.0
 11
235.8843728003
 21
669.5454283399
 31
0.0
  0
CIRCLE
  5
10C
330
1F
100
AcDbEntity
  8
0
  6
Continuous
 62
     7
370
    15
100
AcDbCircle
 10
286.665328453
 20
670.7872501299
 30
0.0
 40
1.250000000000853
  0
CIRCLE
  5
10D
330
1F
100
AcDbEntity
  8
0
  6
Continuous
 62
     7
370
    15
100
AcDbCircle
 10
282.6886209118
 20
659.4653334577
 30
0.0
 40
1.250000000000853
  0
CIRCLE
  5
10E
330
1F
100
AcDbEntity
  8
0
  6
Continuous
 62
     7
370
    15
100
AcDbCircle
 10
235.5139681111
 20
676.034948213
 30
0.0
 40
1.250000000000426
  0
CIRCLE
  5
10F
330
1F
100
AcDbEntity
  8
0
  6
Continuous
 62
     7
370
    15
100
AcDbCircle
 10
239.4906756523
 20
687.3568648851
 30
0.0
 40
1.250000000000853
  0
LINE
  5
110
330
1F
100
AcDbEntity
  8
0
  6
Continuous
 62
     7
370
    15
100
AcDbLine
 10
228.2637997564
 20
715.0538130445
 30
0.0
 11
228.2637997564
 21
663.9785929365
 31
0.0
  0
LINE
  5
111
330
1F
100
AcDbEntity
  8
0
  6
Continuous
 62
     7
370
    15
100
AcDbLine
 10
256.9157525
 20
715.0538130445
 30
0.0
 11
228.2637997564
 21
715.0538130445
 31
0.0
  0
LINE
  5
112
330
1F
100
AcDbEntity
  8
0
  6
Continuous
 62
     7
370
    15
100
AcDbLine
 10
308.5293217596
 20
695.6176920576
 30
0.0
 11
256.9157525
 21
715.0538130445
 31
0.0
  0
LINE
  5
113
330
1F
100
AcDbEntity
  8
0
  6
Continuous
 62
     7
370
    15
100
AcDbLine
 10
298.6788197455
 20
667.2706766767
 30
0.0
 11
308.4372921881
 21
695.053832118
 31
0.0
  0
LINE
  5
114
330
1F
100
AcDbEntity
  8
0
  6
Continuous
 62
     7
370
    15
100
AcDbLine
 10
301.4869137701
 20
666.2130518598
 30
0.0
 11
298.6788197455
 21
667.2706766767
 31
0.0
  0
LINE
  5
115
330
1F
100
AcDbEntity
  8
0
  6
Continuous
 62
     7
370
    15
100
AcDbLine
 10
311.4313527044
 20
694.5250197096
 30
0.0
 11
301.4869137701
 21
666.2130518598
 31
0.0
  0
LINE
  5
116
330
1F
100
AcDbEntity
  8
0
  6
Continuous
 62
     7
370
    15
100
AcDbLine
 10
353.5549088415
 20
678.6625548048
 30
0.0
 11
311.4313527044
 21
694.5250197096
 31
0.0
  0
LINE
  5
117
330
1F
100
AcDbEntity
  8
0
  6
Continuous
 62
     7
370
    15
100
AcDbLine
 10
343.6107083258
 20
650.3508253736
 30
0.0
 11
353.5549088415
 21
678.6625548048
 31
0.0
  0
LINE
  5
118
330
1F
100
AcDbEntity
  8
0
  6
Continuous
 62
     7
370
    15
100
AcDbLine
 10
346.4188023504
 20
649.2932005567
 30
0.0
 11
343.6107083258
 21
650.3508253736
 31
0.0
  0
LINE
  5
119
330
1F
100
AcDbEntity
  8
0
  6
Continuous
 62
     7
370
    15
100
AcDbLine
 10
356.3632412848
 20
677.6051684065
 30
0.0
 11
346.4188023504
 21
649.2932005567
 31
0.0
  0
LINE
  5
11A
330
1F
100
AcDbEntity
  8
0
  6
Continuous
 62
     7
370
    15
100
AcDbLine
 10
420.952741712
 20
653.2828970594
 30
0.0
 11
356.3632412848
 21
677.6051684065
 31
0.0
  0
LINE
  5
11B
330
1F
100
AcDbEntity
  8
0
  6
Continuous
 62
     7
370
    15
100
AcDbLine
 10
411.0083027777
 20
624.9709292097
 30
0.0
 11
420.952741712
 21
653.2828970594
 31
0.0
  0
LINE
  5
11C
330
1F
100
AcDbEntity
  8
0
  6
Continuous
 62
     7
370
    15
100
AcDbLine
 10
413.8166352209
 20
623.9135428114
 30
0.0
 11
411.0083027777
 21
624.9709292097
 31
0.0
  0
LINE
  5
11D
330
1F
100
AcDbEntity
  8
0
  6
Continuous
 62
     7
370
    15
100
AcDbLine
 10
423.7608357367
 20
652.2252722425
 30
0.0
 11
413.8166352209
 21
623.9135428114
 31
0.0
  0
LINE
  5
11E
330
1F
100
AcDbEntity
  8
0
  6
Continuous
 62
     7
370
    15
100
AcDbLine
 10
486.4782734808
 20
628.6080046339
 30
0.0
 11
423.7608357367
 21
652.2252722425
 31
0.0
  0
LINE
  5
11F
330
1F
100
AcDbEntity
  8
0
  6
Continuous
 62
     7
370
    15
100
AcDbLine
 10
476.5340729651
 20
600.2962752027
 30
0.0
 11
486.4782734808
 21
628.6080046339
 31
0.0
  0
LINE
  5
120
330
1F
100
AcDbEntity
  8
0
  6
Continuous
 62
     7
370
    15
100
AcDbLine
 10
479.3421669897
 20
599.2386503858
 30
0.0
 11
476.5340729651
 21
600.2962752027
 31
0.0
  0
LINE
  5
121
330
1F
100
AcDbEntity
  8
0
  6
Continuous
 62
     7
370
    15
100
AcDbLine
 10
489.286605924
 20
627.5506182356
 30
0.0
 11
479.3421669897
 21
599.2386503858
 31
0.0
  0
LINE
  5
122
330
1F
100
AcDbEntity
  8
0
  6
Continuous
 62
     7
370
    15
100
AcDbLine
 10
512.5517292914
 20
618.7896891279
 30
0.0
 11
489.286605924
 21
627.5506182356
 31
0.0
  0
ARC
  5
123
330
1F
100
AcDbEntity
  8
0
  6
Continuous
 62
     7
370
    15
100
AcDbCircle
 10
586.5575304119
 20
815.3174067495
 30
0.0
 40
210.0000000000001
100
AcDbArc
 50
249.3652936311
 51
258.6394172262
  0
LINE
  5
124
330
1F
100
AcDbEntity
  8
0
  6
Continuous
 62
     7
370
    15
100
AcDbLine
 10
539.2128868994
 20
580.033557002
 30
0.0
 11
545.1912327704
 21
609.4319983167
 31
0.0
  0
ARC
  5
125
330
1F
100
AcDbEntity
  8
0
  6
Continuous
 62
     7
370
    15
100
AcDbCircle
 10
586.5575304119
 20
815.3174067495
 30
0.0
 40
239.9999999999999
100
AcDbArc
 50
258.6227042335
 51
259.3389307641
  0
LINE
  5
126
330
1F
100
AcDbEntity
  8
0
  6
Continuous
 62
     7
370
    15
100
AcDbLine
 10
548.1366558966
 20
608.8619394941
 30
0.0
 11
542.1578331884
 21
579.4601603193
 31
0.0
  0
ARC
  5
127
330
1F
100
AcDbEntity
  8
0
  6
Continuous
 62
     7
370
    15
100
AcDbCircle
 10
586.5575304119
 20
815.3174067495
 30
0.0
 40
210.0000000000001
100
AcDbArc
 50
259.4579720799
 51
273.9434560193
  0
LINE
  5
128
330
1F
100
AcDbEntity
  8
0
  6
Continuous
 62
     7
370
    15
100
AcDbLine
 10
604.0369912085
 20
575.9546919508
 30
0.0
 11
600.9995385107
 21
605.8147116346
 31
0.0
  0
ARC
  5
129
330
1F
100
AcDbEntity
  8
0
  6
Continuous
 62
     7
370
    15
100
AcDbCircle
 10
586.5575304119
 20
815.3174067495
 30
0.0
 40
240.0000000000005
100
AcDbArc
 50
274.1766046853
 51
274.8929834905
  0
LINE
  5
12A
330
1F
100
AcDbEntity
  8
0
  6
Continuous
 62
     7
370
    15
100
AcDbLine
 10
603.991930097
 20
606.0424013776
 30
0.0
 11
607.0281907019
 21
576.191918437
 31
0.0
  0
ARC
  5
12B
330
1F
100
AcDbEntity
  8
0
  6
Continuous
 62
     7
370
    15
100
AcDbCircle
 10
586.5575304119
 20
815.3174067495
 30
0.0
 40
209.9999999999998
100
AcDbArc
 50
274.7622382086
 51
276.8631255695
  0
LINE
  5
12C
330
1F
100
AcDbEntity
  8
0
  6
Continuous
 62
     7
370
    15
100
AcDbLine
 10
652.7945443091
 20
611.7739840192
 30
0.0
 11
611.652080625
 21
606.8222685499
 31
0.0
  0
LINE
  5
12D
330
1F
100
AcDbEntity
  8
0
  6
Continuous
 62
     7
370
    15
100
AcDbLine
 10
655.2285595831
 20
596.9588919325
 30
0.0
 11
652.7945443091
 21
611.7739840192
 31
0.0
  0
LINE
  5
12E
330
1F
100
AcDbEntity
  8
0
  6
Continuous
 62
     7
370
    15
100
AcDbLine
 10
652.24737367
 20
596.6000719709
 30
0.0
 11
655.2285595831
 21
596.9588919325
 31
0.0
  0
LINE
  5
12F
330
1F
100
AcDbEntity
  8
0
  6
Continuous
 62
     7
370
    15
100
AcDbLine
 10
658.997242063
 20
555.5150671644
 30
0.0
 11
652.24737367
 21
596.6000719709
 31
0.0
  0
LINE
  5
130
330
1F
100
AcDbEntity
  8
0
  6
Continuous
 62
     7
370
    15
100
AcDbLine
 10
661.954109281
 20
556.0219450636
 30
0.0
 11
658.997242063
 21
555.5150671644
 31
0.0
  0
LINE
  5
131
330
1F
100
AcDbEntity
  8
0
  6
Continuous
 62
     7
370
    15
100
AcDbLine
 10
664.3859787878
 20
541.2199659986
 30
0.0
 11
661.954109281
 21
556.0219450636
 31
0.0
  0
LINE
  5
132
330
1F
100
AcDbEntity
  8
0
  6
Continuous
 62
     7
370
    15
100
AcDbLine
 10
623.0279847082
 20
534.1322584791
 30
0.0
 11
664.3859787878
 21
541.2199659986
 31
0.0
  0
ARC
  5
133
330
1F
100
AcDbEntity
  8
0
  6
Continuous
 62
     7
370
    15
100
AcDbCircle
 10
572.8611176657
 20
826.8646822174
 30
0.0
 40
297.0000000000002
100
AcDbArc
 50
273.2800033637
 51
279.7245662464
  0
ARC
  5
134
330
1F
100
AcDbEntity
  8
0
  6
Continuous
 62
     7
370
    15
100
AcDbCircle
 10
589.5680714163
 20
535.3430231654
 30
0.0
 40
4.999999999999966
100
AcDbArc
 50
180.0
 51
273.280003364
  0
LINE
  5
135
330
1F
100
AcDbEntity
  8
0
  6
Continuous
 62
     7
370
    15
100
AcDbLine
 10
584.5679684576
 20
547.3947687788
 30
0.0
 11
584.5679684576
 21
535.3429480238
 31
0.0
  0
ARC
  5
136
330
1F
100
AcDbEntity
  8
0
  6
Continuous
 62
     7
370
    15
100
AcDbCircle
 10
574.5680714163
 20
547.3947203876
 30
0.0
 40
9.999999999999773
100
AcDbArc
 50
0.0
 51
90.0
  0
LINE
  5
137
330
1F
100
AcDbEntity
  8
0
  6
Continuous
 62
     7
370
    15
100
AcDbLine
 10
574.5679779944
 20
557.394759242
 30
0.0
 11
561.2034245428
 21
557.394759242
 31
0.0
  0
ARC
  5
138
330
1F
100
AcDbEntity
  8
0
  6
Continuous
 62
     7
370
    15
100
AcDbCircle
 10
561.2034644599
 20
547.3947203876
 30
0.0
 40
9.999999999999773
100
AcDbArc
 50
90.0
 51
180.0
  0
LINE
  5
139
330
1F
100
AcDbEntity
  8
0
  6
Continuous
 62
     7
370
    15
100
AcDbLine
 10
551.2034340796
 20
547.3947687788
 30
0.0
 11
551.2034340796
 21
541.6159792585
 31
0.0
  0
ARC
  5
13A
330
1F
100
AcDbEntity
  8
0
  6
Continuous
 62
     7
370
    15
100
AcDbCircle
 10
541.2034644599
 20
541.6160310488
 30
0.0
 40
10.00000000000028
100
AcDbArc
 50
263.6670784817
 51
0.0
  0
ARC
  5
13B
330
1F
100
AcDbEntity
  8
0
  6
Continuous
 62
     7
370
    15
100
AcDbCircle
 10
572.8611176657
 20
826.8646822174
 30
0.0
 40
296.9999999999993
100
AcDbArc
 50
251.4005443984
 51
263.6670784817
  0
LINE
  5
13C
330
1F
100
AcDbEntity
  8
0
  6
Continuous
 62
     7
370
    15
100
AcDbLine
 10
280.7818098959
 20
611.7904349012
 30
0.0
 11
478.1329079565
 21
545.3765555067
 31
0.0
  0
LINE
  5
13D
330
1F
100
AcDbEntity
  8
0
  6
Continuous
 62
     7
370
    15
100
AcDbLine
 10
228.2637997564
 20
611.7904349012
 30
0.0
 11
280.7818098959
 21
611.7904349012
 31
0.0
  0
LINE
  5
13E
330
1F
100
AcDbEntity
  8
0
  6
Continuous
 62
     7
370
    15
100
AcDbLine
 10
228.2637997564
 20
637.4786062879
 30
0.0
 11
228.2637997564
 21
611.7904349012
 31
0.0
  0
LINE
  5
13F
330
1F
100
AcDbEntity
  8
0
  6
Continuous
 62
     7
370
    15
100
AcDbLine
 10
228.2637997564
 20
637.4786062879
 30
0.0
 11
243.2637854513
 21
637.4786062879
 31
0.0
  0
ARC
  5
140
330
1F
100
AcDbEntity
  8
0
  6
Continuous
 62
     7
370
    15
100
AcDbCircle
 10
243.2637700464
 20
642.4786687217
 30
0.0
 40
4.999999999999886
100
AcDbArc
 50
270.0
 51
0.0
  0
LINE
  5
141
330
1F
100
AcDbEntity
  8
0
  6
Continuous
 62
     7
370
    15
100
AcDbLine
 10
248.263780683
 20
642.4787207288
 30
0.0
 11
248.263780683
 21
647.4785967512
 31
0.0
  0
ARC
  5
142
330
1F
100
AcDbEntity
  8
0
  6
Continuous
 62
     7
370
    15
100
AcDbCircle
 10
243.2637700464
 20
647.4786687217
 30
0.0
 40
4.999999999999886
100
AcDbArc
 50
0.0
 51
90.0
  0
LINE
  5
143
330
1F
100
AcDbEntity
  8
0
  6
Continuous
 62
     7
370
    15
100
AcDbLine
 10
243.2637854513
 20
652.4787111921
 30
0.0
 11
228.2637997564
 21
652.4787111921
 31
0.0
  0
LINE
  5
144
330
1F
100
AcDbEntity
  8
0
  6
Continuous
 62
     7
370
    15
100
AcDbLine
 10
228.2637997564
 20
660.9785719556
 30
0.0
 11
228.2637997564
 21
652.4787111921
 31
0.0
  0
ARC
  5
145
330
1F
100
AcDbEntity
  8
0
  6
Continuous
 62
     7
370
    15
100
AcDbCircle
 10
228.2637700464
 20
662.4786687217
 30
0.0
 40
1.500000000000114
100
AcDbArc
 50
270.0
 51
90.0
  0
LINE
  5
146
330
1F
100
AcDbEntity
  8
0
  6
Continuous
 62
     7
370
    15
100
AcDbLine
 10
308.4372921881
 20
695.053832118
 30
0.0
 11
308.331434339
 21
695.053832118
 31
0.0
  0
LINE
  5
147
330
1F
100
AcDbEntity
  8
0
  6
Continuous
 62
     7
370
    15
100
AcDbLine
 10
308.331434339
 20
695.053832118
 30
0.0
 11
308.5293217596
 21
695.6176920576
 31
0.0
  0
INSERT
  5
14D
330
1F
100
AcDbEntity
  8
SLD-0
100
AcDbBlockReference
  2
SW_NOTE_8
 10
461.8520243406
 20
650.7977957239
 30
0.0
  0
LEADER
  5
14E
330
1F
100
AcDbEntity
  8
SLD-0
100
AcDbLeader
  3
SLDDIMSTYLE0
 76
     2
 10
451.8454855529
 20
631.7610396576
 30
0.0
 10
461.8520243406
 20
650.7977957239
 30
0.0
  0
INSERT
  5
153
330
1F
100
AcDbEntity
  8
SLD-0
100
AcDbBlockReference
  2
SW_NOTE_9
 10
463.7352941176
 20
646.4705882353
 30
0.0
  0
LEADER
  5
154
330
1F
100
AcDbEntity
  8
SLD-0
100
AcDbLeader
  3
SLDDIMSTYLE0
 76
     2
 10
451.7369068794
 20
631.8110130113
 30
0.0
 10
463.7352941176
 20
646.4705882353
 30
0.0
  0
LINE
  5
155
330
1F
100
AcDbEntity
  8
0
  6
Continuous
 62
     7
370
    15
100
AcDbLine
 10
335.3117921966
 20
478.5013921987
 30
0.0
 11
335.3117921966
 21
481.5014131795
 31
0.0
  0
LINE
  5
156
330
1F
100
AcDbEntity
  8
0
  6
Continuous
 62
     7
370
    15
100
AcDbLine
 10
335.3117921966
 20
481.5014131795
 30
0.0
 11
298.6704328673
 21
481.5014131795
 31
0.0
  0
LINE
  5
157
330
1F
100
AcDbEntity
  8
0
  6
Continuous
 62
     7
370
    15
100
AcDbLine
 10
298.6704328673
 20
481.5014131795
 30
0.0
 11
298.6704328673
 21
478.5013921987
 31
0.0
  0
LINE
  5
158
330
1F
100
AcDbEntity
  8
0
  6
Continuous
 62
     7
370
    15
100
AcDbLine
 10
298.6704328673
 20
478.5013921987
 30
0.0
 11
335.3117921966
 21
478.5013921987
 31
0.0
  0
LINE
  5
159
330
1F
100
AcDbEntity
  8
0
  6
Continuous
 62
     7
370
    15
100
AcDbLine
 10
231.6056707519
 20
554.1132219564
 30
0.0
 11
231.6056707519
 21
571.113181902
 31
0.0
  0
ARC
  5
15A
330
1F
100
AcDbEntity
  8
0
  6
Continuous
 62
     7
370
    15
100
AcDbCircle
 10
231.6056410418
 20
521.1132412635
 30
0.0
 40
49.9999999999998
100
AcDbArc
 50
19.2852726957
 51
90.0
  0
ARC
  5
15B
330
1F
100
AcDbEntity
  8
0
  6
Continuous
 62
     7
370
    15
100
AcDbCircle
 10
307.1165111064
 20
547.5349842434
 30
0.0
 40
30.00000000000018
100
AcDbArc
 50
199.2852726957
 51
249.953149452
  0
LINE
  5
15C
330
1F
100
AcDbEntity
  8
0
  6
Continuous
 62
     7
370
    15
100
AcDbLine
 10
296.8329408782
 20
519.3525083791
 30
0.0
 11
302.9955843108
 21
517.103744341
 31
0.0
  0
LINE
  5
15D
330
1F
100
AcDbEntity
  8
0
  6
Continuous
 62
     7
370
    15
100
AcDbLine
 10
298.024318518
 20
502.9505022298
 30
0.0
 11
302.9955843108
 21
517.103744341
 31
0.0
  0
LINE
  5
15E
330
1F
100
AcDbEntity
  8
0
  6
Continuous
 62
     7
370
    15
100
AcDbLine
 10
300.8429029601
 20
501.9219644796
 30
0.0
 11
298.024318518
 21
502.9505022298
 31
0.0
  0
LINE
  5
15F
330
1F
100
AcDbEntity
  8
0
  6
Continuous
 62
     7
370
    15
100
AcDbLine
 10
305.8141687529
 20
516.0754450093
 30
0.0
 11
300.8429029601
 21
501.9219644796
 31
0.0
  0
LINE
  5
160
330
1F
100
AcDbEntity
  8
0
  6
Continuous
 62
     7
370
    15
100
AcDbLine
 10
348.0907896178
 20
500.6488092672
 30
0.0
 11
305.8141687529
 21
516.0754450093
 31
0.0
  0
LINE
  5
161
330
1F
100
AcDbEntity
  8
0
  6
Continuous
 62
     7
370
    15
100
AcDbLine
 10
343.119523825
 20
486.4953287374
 30
0.0
 11
348.0907896178
 21
500.6488092672
 31
0.0
  0
LINE
  5
162
330
1F
100
AcDbEntity
  8
0
  6
Continuous
 62
     7
370
    15
100
AcDbLine
 10
345.9378698485
 20
485.4667909871
 30
0.0
 11
343.119523825
 21
486.4953287374
 31
0.0
  0
LINE
  5
163
330
1F
100
AcDbEntity
  8
0
  6
Continuous
 62
     7
370
    15
100
AcDbLine
 10
350.9091356414
 20
499.6202715169
 30
0.0
 11
345.9378698485
 21
485.4667909871
 31
0.0
  0
LINE
  5
164
330
1F
100
AcDbEntity
  8
0
  6
Continuous
 62
     7
370
    15
100
AcDbLine
 10
415.733478369
 20
475.9662874471
 30
0.0
 11
350.9091356414
 21
499.6202715169
 31
0.0
  0
LINE
  5
165
330
1F
100
AcDbEntity
  8
0
  6
Continuous
 62
     7
370
    15
100
AcDbLine
 10
410.7622125762
 20
461.8128069173
 30
0.0
 11
415.733478369
 21
475.9662874471
 31
0.0
  0
LINE
  5
166
330
1F
100
AcDbEntity
  8
0
  6
Continuous
 62
     7
370
    15
100
AcDbLine
 10
413.5805585998
 20
460.7842691671
 30
0.0
 11
410.7622125762
 21
461.8128069173
 31
0.0
  0
LINE
  5
167
330
1F
100
AcDbEntity
  8
0
  6
Continuous
 62
     7
370
    15
100
AcDbLine
 10
418.5518243926
 20
474.9377496968
 30
0.0
 11
413.5805585998
 21
460.7842691671
 31
0.0
  0
LINE
  5
168
330
1F
100
AcDbEntity
  8
0
  6
Continuous
 62
     7
370
    15
100
AcDbLine
 10
481.4971902984
 20
451.9692190419
 30
0.0
 11
418.5518243926
 21
474.9377496968
 31
0.0
  0
LINE
  5
169
330
1F
100
AcDbEntity
  8
0
  6
Continuous
 62
     7
370
    15
100
AcDbLine
 10
476.5259245055
 20
437.8157385122
 30
0.0
 11
481.4971902984
 21
451.9692190419
 31
0.0
  0
LINE
  5
16A
330
1F
100
AcDbEntity
  8
0
  6
Continuous
 62
     7
370
    15
100
AcDbLine
 10
479.3442705291
 20
436.7874391805
 30
0.0
 11
476.5259245055
 21
437.8157385122
 31
0.0
  0
LINE
  5
16B
330
1F
100
AcDbEntity
  8
0
  6
Continuous
 62
     7
370
    15
100
AcDbLine
 10
484.3155363219
 20
450.9409197103
 30
0.0
 11
479.3442705291
 21
436.7874391805
 31
0.0
  0
ARC
  5
16C
330
1F
100
AcDbEntity
  8
0
  6
Continuous
 62
     7
370
    15
100
AcDbCircle
 10
590.4302691659
 20
790.7947851192
 30
0.0
 40
356.0351818099574
100
AcDbArc
 50
252.6597474541
 51
262.6225744841
  0
LINE
  5
16D
330
1F
100
AcDbEntity
  8
0
  6
Continuous
 62
     7
370
    15
100
AcDbLine
 10
541.7245844024
 20
423.0077989827
 30
0.0
 11
544.7136381286
 21
437.7070196401
 31
0.0
  0
LINE
  5
16E
330
1F
100
AcDbEntity
  8
0
  6
Continuous
 62
     7
370
    15
100
AcDbLine
 10
544.6642854827
 20
422.4098451863
 30
0.0
 11
541.7245844024
 21
423.0077989827
 31
0.0
  0
LINE
  5
16F
330
1F
100
AcDbEntity
  8
0
  6
Continuous
 62
     7
370
    15
100
AcDbLine
 10
547.6991155761
 20
437.3331793081
 30
0.0
 11
544.6642854827
 21
422.4098451863
 31
0.0
  0
ARC
  5
170
330
1F
100
AcDbEntity
  8
0
  6
Continuous
 62
     7
370
    15
100
AcDbCircle
 10
606.7611714639
 20
1272.993950919
 30
0.0
 40
837.7453227116024
100
AcDbArc
 50
265.9572181102
 51
269.9571144002
  0
LINE
  5
171
330
1F
100
AcDbEntity
  8
0
  6
Continuous
 62
     7
370
    15
100
AcDbLine
 10
607.6826074737
 20
420.0254209768
 30
0.0
 11
606.1340788024
 21
435.2489240895
 31
0.0
  0
LINE
  5
172
330
1F
100
AcDbEntity
  8
0
  6
Continuous
 62
     7
370
    15
100
AcDbLine
 10
610.6671312468
 20
420.3289278279
 30
0.0
 11
607.6826074737
 21
420.0254209768
 31
0.0
  0
LINE
  5
173
330
1F
100
AcDbEntity
  8
0
  6
Continuous
 62
     7
370
    15
100
AcDbLine
 10
609.1493585723
 20
435.2520235311
 30
0.0
 11
610.6671312468
 21
420.3289278279
 31
0.0
  0
ARC
  5
174
330
1F
100
AcDbEntity
  8
0
  6
Continuous
 62
     7
370
    15
100
AcDbCircle
 10
606.7611714639
 20
1272.993950919
 30
0.0
 40
837.7453227116022
100
AcDbArc
 50
270.1633298286
 51
273.6254758111
  0
LINE
  5
175
330
1F
100
AcDbEntity
  8
0
  6
Continuous
 62
     7
370
    15
100
AcDbLine
 10
661.3546827453
 20
427.0535238515
 30
0.0
 11
659.735343756
 21
436.9252451192
 31
0.0
  0
LINE
  5
176
330
1F
100
AcDbEntity
  8
0
  6
Continuous
 62
     7
370
    15
100
AcDbLine
 10
658.3811262267
 20
426.648212267
 30
0.0
 11
661.3546827453
 21
427.0535238515
 31
0.0
  0
LINE
  5
177
330
1F
100
AcDbEntity
  8
0
  6
Continuous
 62
     7
370
    15
100
AcDbLine
 10
661.405227484
 20
408.2105882894
 30
0.0
 11
658.3811262267
 21
426.648212267
 31
0.0
  0
LINE
  5
178
330
1F
100
AcDbEntity
  8
0
  6
Continuous
 62
     7
370
    15
100
AcDbLine
 10
664.3647173064
 20
408.7024458181
 30
0.0
 11
661.405227484
 21
408.2105882894
 31
0.0
  0
LINE
  5
179
330
1F
100
AcDbEntity
  8
0
  6
Continuous
 62
     7
370
    15
100
AcDbLine
 10
665.9833410399
 20
398.834300829
 30
0.0
 11
664.3647173064
 21
408.7024458181
 31
0.0
  0
LINE
  5
17A
330
1F
100
AcDbEntity
  8
0
  6
Continuous
 62
     7
370
    15
100
AcDbLine
 10
622.6388433593
 20
391.6307218801
 30
0.0
 11
665.9833410399
 21
398.834300829
 31
0.0
  0
ARC
  5
17B
330
1F
100
AcDbEntity
  8
0
  6
Continuous
 62
     7
370
    15
100
AcDbCircle
 10
577.5541341097
 20
662.909795574
 30
0.0
 40
275.0000000000007
100
AcDbArc
 50
251.1291754356
 51
279.4359169147
  0
LINE
  5
17C
330
1F
100
AcDbEntity
  8
0
  6
Continuous
 62
     7
370
    15
100
AcDbLine
 10
288.4317854064
 20
471.1132772695
 30
0.0
 11
488.6094549315
 21
402.6909597646
 31
0.0
  0
LINE
  5
17D
330
1F
100
AcDbEntity
  8
0
  6
Continuous
 62
     7
370
    15
100
AcDbLine
 10
231.6056707519
 20
471.1132772695
 30
0.0
 11
288.4317854064
 21
471.1132772695
 31
0.0
  0
LINE
  5
17E
330
1F
100
AcDbEntity
  8
0
  6
Continuous
 62
     7
370
    15
100
AcDbLine
 10
231.6056707519
 20
488.1132372152
 30
0.0
 11
231.6056707519
 21
471.1132772695
 31
0.0
  0
ARC
  5
17F
330
1F
100
AcDbEntity
  8
0
  6
Continuous
 62
     7
370
    15
100
AcDbCircle
 10
231.6056410418
 20
521.1132412635
 30
0.0
 40
32.99999999999994
100
AcDbArc
 50
270.0
 51
90.0
  0
LINE
  5
180
330
1F
100
AcDbEntity
  8
0
  6
Continuous
 62
     7
370
    15
100
AcDbLine
 10
394.2715147155
 20
457.1088083516
 30
0.0
 11
397.5852945464
 21
466.5437467824
 31
0.0
  0
ARC
  5
181
330
1F
100
AcDbEntity
  8
0
  6
Continuous
 62
     7
370
    15
100
AcDbCircle
 10
399.9323945719
 20
455.1203485581
 30
0.0
 40
5.999999999999882
100
AcDbArc
 50
160.6466960654
 51
340.6466960654
  0
LINE
  5
182
330
1F
100
AcDbEntity
  8
0
  6
Continuous
 62
     7
370
    15
100
AcDbLine
 10
408.9073160308
 20
462.566924883
 30
0.0
 11
405.5932977813
 21
453.1319864522
 31
0.0
  0
ARC
  5
183
330
1F
100
AcDbEntity
  8
0
  6
Continuous
 62
     7
370
    15
100
AcDbCircle
 10
403.2463175229
 20
464.5552791183
 30
0.0
 40
5.999999999999901
100
AcDbArc
 50
340.6466960654
 51
160.6466960654
  0
INSERT
  5
189
330
1F
100
AcDbEntity
  8
SLD-0
100
AcDbBlockReference
  2
SW_NOTE_10
 10
452.035250438
 20
473.8224673184
 30
0.0
  0
LEADER
  5
18A
330
1F
100
AcDbEntity
  8
SLD-0
100
AcDbLeader
  3
SLDDIMSTYLE0
 76
     2
 10
442.2890562166
 20
454.9318073136
 30
0.0
 10
452.035250438
 20
473.8224673184
 30
0.0
  0
INSERT
  5
18F
330
1F
100
AcDbEntity
  8
SLD-0
100
AcDbBlockReference
  2
SW_NOTE_11
 10
452.9117647059
 20
468.3529411765
 30
0.0
  0
LEADER
  5
190
330
1F
100
AcDbEntity
  8
SLD-0
100
AcDbLeader
  3
SLDDIMSTYLE0
 76
     2
 10
442.2369124274
 20
454.9855576144
 30
0.0
 10
452.9117647059
 20
468.3529411765
 30
0.0
  0
LINE
  5
191
330
1F
100
AcDbEntity
  8
0
  6
Continuous
 62
     7
370
    15
100
AcDbLine
 10
120.1490668641
 20
318.1818487231
 30
0.0
 11
37.5971106873
 21
305.5978776996
 31
0.0
  0
LINE
  5
192
330
1F
100
AcDbEntity
  8
0
  6
Continuous
 62
     7
370
    15
100
AcDbLine
 10
123.2278851853
 20
299.4419099872
 30
0.0
 11
120.1490668641
 21
318.1818487231
 31
0.0
  0
LINE
  5
193
330
1F
100
AcDbEntity
  8
0
  6
Continuous
 62
     7
370
    15
100
AcDbLine
 10
126.6814975129
 20
300.0093462054
 30
0.0
 11
123.2278851853
 21
299.4419099872
 31
0.0
  0
LINE
  5
194
330
1F
100
AcDbEntity
  8
0
  6
Continuous
 62
     7
370
    15
100
AcDbLine
 10
123.6093549119
 20
318.7089922015
 30
0.0
 11
126.6814975129
 21
300.0093462054
 31
0.0
  0
LINE
  5
195
330
1F
100
AcDbEntity
  8
0
  6
Continuous
 62
     7
370
    15
100
AcDbLine
 10
203.1962184296
 20
330.8356763904
 30
0.0
 11
123.6093549119
 21
318.7089922015
 31
0.0
  0
LINE
  5
196
330
1F
100
AcDbEntity
  8
0
  6
Continuous
 62
     7
370
    15
100
AcDbLine
 10
206.1156539307
 20
313.0658628528
 30
0.0
 11
203.1962184296
 21
330.8356763904
 31
0.0
  0
LINE
  5
197
330
1F
100
AcDbEntity
  8
0
  6
Continuous
 62
     7
370
    15
100
AcDbLine
 10
209.5693854676
 20
313.633299071
 30
0.0
 11
206.1156539307
 21
313.0658628528
 31
0.0
  0
LINE
  5
198
330
1F
100
AcDbEntity
  8
0
  6
Continuous
 62
     7
370
    15
100
AcDbLine
 10
206.6547183381
 20
331.3742639605
 30
0.0
 11
209.5693854676
 21
313.633299071
 31
0.0
  0
LINE
  5
199
330
1F
100
AcDbEntity
  8
0
  6
Continuous
 62
     7
370
    15
100
AcDbLine
 10
253.3492354737
 20
338.487482268
 30
0.0
 11
206.6547183381
 21
331.3742639605
 31
0.0
  0
LINE
  5
19A
330
1F
100
AcDbEntity
  8
0
  6
Continuous
 62
     7
370
    15
100
AcDbLine
 10
254.863193451
 20
329.2726041858
 30
0.0
 11
253.3492354737
 21
338.487482268
 31
0.0
  0
LINE
  5
19B
330
1F
100
AcDbEntity
  8
0
  6
Continuous
 62
     7
370
    15
100
AcDbLine
 10
257.8233985291
 20
329.7589780871
 30
0.0
 11
254.863193451
 21
329.2726041858
 31
0.0
  0
LINE
  5
19C
330
1F
100
AcDbEntity
  8
0
  6
Continuous
 62
     7
370
    15
100
AcDbLine
 10
256.3151625977
 20
338.9390470569
 30
0.0
 11
257.8233985291
 21
329.7589780871
 31
0.0
  0
LINE
  5
19D
330
1F
100
AcDbEntity
  8
0
  6
Continuous
 62
     7
370
    15
100
AcDbLine
 10
286.7359427796
 20
343.5762884204
 30
0.0
 11
256.3151625977
 21
338.9390470569
 31
0.0
  0
LINE
  5
19E
330
1F
100
AcDbEntity
  8
0
  6
Continuous
 62
     7
370
    15
100
AcDbLine
 10
289.8101119385
 20
324.8647214953
 30
0.0
 11
286.7359427796
 21
343.5762884204
 31
0.0
  0
LINE
  5
19F
330
1F
100
AcDbEntity
  8
0
  6
Continuous
 62
     7
370
    15
100
AcDbLine
 10
292.2770289765
 20
325.2700330798
 30
0.0
 11
289.8101119385
 21
324.8647214953
 31
0.0
  0
LINE
  5
1A0
330
1F
100
AcDbEntity
  8
0
  6
Continuous
 62
     7
370
    15
100
AcDbLine
 10
294.8362140046
 20
309.6920015399
 30
0.0
 11
292.2770289765
 21
325.2700330798
 31
0.0
  0
LINE
  5
1A1
330
1F
100
AcDbEntity
  8
0
  6
Continuous
 62
     7
370
    15
100
AcDbLine
 10
262.0436457978
 20
304.0719987933
 30
0.0
 11
294.8362140046
 21
309.6920015399
 31
0.0
  0
LINE
  5
1A2
330
1F
100
AcDbEntity
  8
0
  6
Continuous
 62
     7
370
    15
100
AcDbLine
 10
260.610988556
 20
312.7909662311
 30
0.0
 11
262.0436457978
 21
304.0719987933
 31
0.0
  0
LINE
  5
1A3
330
1F
100
AcDbEntity
  8
0
  6
Continuous
 62
     7
370
    15
100
AcDbLine
 10
257.6507834779
 20
312.3045923297
 30
0.0
 11
260.610988556
 21
312.7909662311
 31
0.0
  0
LINE
  5
1A4
330
1F
100
AcDbEntity
  8
0
  6
Continuous
 62
     7
370
    15
100
AcDbLine
 10
259.0865401612
 20
303.5651208941
 30
0.0
 11
257.6507834779
 21
312.3045923297
 31
0.0
  0
LINE
  5
1A5
330
1F
100
AcDbEntity
  8
0
  6
Continuous
 62
     7
370
    15
100
AcDbLine
 10
43.9869670258
 20
266.703939635
 30
0.0
 11
259.0865401612
 21
303.5651208941
 31
0.0
  0
LINE
  5
1A6
330
1F
100
AcDbEntity
  8
0
  6
Continuous
 62
     7
370
    15
100
AcDbLine
 10
42.3169640885
 20
276.8691541736
 30
0.0
 11
43.9869670258
 21
266.703939635
 31
0.0
  0
LINE
  5
1A7
330
1F
100
AcDbEntity
  8
0
  6
Continuous
 62
     7
370
    15
100
AcDbLine
 10
45.2772883759
 20
277.3555280749
 30
0.0
 11
42.3169640885
 21
276.8691541736
 31
0.0
  0
LINE
  5
1A8
330
1F
100
AcDbEntity
  8
0
  6
Continuous
 62
     7
370
    15
100
AcDbLine
 10
42.2573594437
 20
295.7368852679
 30
0.0
 11
45.2772883759
 21
277.3555280749
 31
0.0
  0
LINE
  5
1A9
330
1F
100
AcDbEntity
  8
0
  6
Continuous
 62
     7
370
    15
100
AcDbLine
 10
39.2945317612
 20
295.2500345294
 30
0.0
 11
42.2573594437
 21
295.7368852679
 31
0.0
  0
LINE
  5
1AA
330
1F
100
AcDbEntity
  8
0
  6
Continuous
 62
     7
370
    15
100
AcDbLine
 10
37.5971106873
 20
305.5978776996
 30
0.0
 11
39.2945317612
 21
295.2500345294
 31
0.0
  0
INSERT
  5
1B0
330
1F
100
AcDbEntity
  8
SLD-0
100
AcDbBlockReference
  2
SW_NOTE_12
 10
304.066209136
 20
340.9717403188
 30
0.0
  0
LEADER
  5
1B1
330
1F
100
AcDbEntity
  8
SLD-0
100
AcDbLeader
  3
SLDDIMSTYLE0
 76
     2
 10
277.0906967083
 20
330.2770265019
 30
0.0
 10
304.066209136
 20
340.9717403188
 30
0.0
  0
INSERT
  5
1B6
330
1F
100
AcDbEntity
  8
SLD-0
100
AcDbBlockReference
  2
SW_NOTE_13
 10
295.3823529412
 20
332.2352941176
 30
0.0
  0
LEADER
  5
1B7
330
1F
100
AcDbEntity
  8
SLD-0
100
AcDbLeader
  3
SLDDIMSTYLE0
 76
     2
 10
277.0411927162
 20
330.3682964834
 30
0.0
 10
295.3823529412
 20
332.2352941176
 30
0.0
  0
LINE
  5
1B8
330
1F
100
AcDbEntity
  8
0
  6
Continuous
 62
     7
370
    15
100
AcDbLine
 10
900.1396181199
 20
373.5168400701
 30
0.0
 11
900.1396181199
 21
380.5168393549
 31
0.0
  0
LINE
  5
1B9
330
1F
100
AcDbEntity
  8
0
  6
Continuous
 62
     7
370
    15
100
AcDbLine
 10
1058.4020441535
 20
380.5168393549
 30
0.0
 11
900.1396181199
 21
380.5168393549
 31
0.0
  0
LINE
  5
1BA
330
1F
100
AcDbEntity
  8
0
  6
Continuous
 62
     7
370
    15
100
AcDbLine
 10
1059.2669373515
 20
365.5168396901
 30
0.0
 11
1058.4020441535
 21
380.5168393549
 31
0.0
  0
LINE
  5
1BB
330
1F
100
AcDbEntity
  8
0
  6
Continuous
 62
     7
370
    15
100
AcDbLine
 10
1059.2669373515
 20
365.5168396901
 30
0.0
 11
911.1396178274
 21
365.5168396901
 31
0.0
  0
LINE
  5
1BC
330
1F
100
AcDbEntity
  8
0
  6
Continuous
 62
     7
370
    15
100
AcDbLine
 10
911.1396178274
 20
365.5168396901
 30
0.0
 11
900.1396181199
 21
373.5168400701
 31
0.0
  0
INSERT
  5
1C2
330
1F
100
AcDbEntity
  8
SLD-0
100
AcDbBlockReference
  2
SW_NOTE_14
 10
976.0710503606
 20
387.6363047234
 30
0.0
  0
LEADER
  5
1C3
330
1F
100
AcDbEntity
  8
SLD-0
100
AcDbLeader
  3
SLDDIMSTYLE0
 76
     2
 10
972.3356589457
 20
373.0479806288
 30
0.0
 10
976.0710503606
 20
387.6363047234
 30
0.0
  0
INSERT
  5
1C8
330
1F
100
AcDbEntity
  8
SLD-0
100
AcDbBlockReference
  2
SW_NOTE_15
 10
982.2058823529
 20
385.0588235294
 30
0.0
  0
LEADER
  5
1C9
330
1F
100
AcDbEntity
  8
SLD-0
100
AcDbLeader
  3
SLDDIMSTYLE0
 76
     2
 10
972.2154681147
 20
373.0180610795
 30
0.0
 10
982.2058823529
 20
385.0588235294
 30
0.0
  0
LINE
  5
1CA
330
1F
100
AcDbEntity
  8
0
  6
CENTER
 62
     7
370
     0
100
AcDbLine
 10
911.1396178725
 20
403.4061315854
 30
0.0
 11
911.1396178725
 21
348.5209396615
 31
0.0
  0
LINE
  5
1CB
330
1F
100
AcDbEntity
  8
0
  6
Continuous
 62
     7
370
     0
100
AcDbLine
 10
893.1396178725
 20
401.4061315854
 30
0.0
 11
911.1396178725
 21
401.4061315854
 31
0.0
  0
SOLID
  5
1CC
330
1F
100
AcDbEntity
  8
0
  6
Continuous
 62
     7
370
     0
100
AcDbTrace
 10
911.1396178725
 20
401.4061315854
 30
0.0
 11
903.1396178725
 21
403.4061315854
 31
0.0
 12
903.1396178725
 22
399.4061315854
 32
0.0
 13
903.1396178725
 23
399.4061315854
 33
0.0
  0
LINE
  5
1CD
330
1F
100
AcDbEntity
  8
0
  6
Continuous
 62
     7
370
     0
100
AcDbLine
 10
893.1396178725
 20
350.5209396615
 30
0.0
 11
911.1396178725
 21
350.5209396615
 31
0.0
  0
SOLID
  5
1CE
330
1F
100
AcDbEntity
  8
0
  6
Continuous
 62
     7
370
     0
100
AcDbTrace
 10
911.1396178725
 20
350.5209396615
 30
0.0
 11
903.1396178725
 21
352.5209396615
 31
0.0
 12
903.1396178725
 22
348.5209396615
 32
0.0
 13
903.1396178725
 23
348.5209396615
 33
0.0
  0
MTEXT
  5
1CF
330
1F
100
AcDbEntity
  8
0
  6
Continuous
 62
     7
100
AcDbMText
 10
893.1396178725
 20
408.307815368
 30
0.0
 40
4.5
 41
0.0
 71
     1
 72
     1
  1
A
  7
SLDTEXTSTYLE0
 73
     1
 44
1.0
  0
MTEXT
  5
1D0
330
1F
100
AcDbEntity
  8
0
  6
Continuous
 62
     7
100
AcDbMText
 10
893.1396178725
 20
357.4226234441
 30
0.0
 40
4.5
 41
0.0
 71
     1
 72
     1
  1
A
  7
SLDTEXTSTYLE0
 73
     1
 44
1.0
  0
LINE
  5
1D1
330
1F
100
AcDbEntity
  8
0
  6
CENTER
 62
     7
370
     0
100
AcDbLine
 10
1056.1331271063
 20
403.4061315854
 30
0.0
 11
1056.1331271063
 21
348.5209396615
 31
0.0
  0
LINE
  5
1D2
330
1F
100
AcDbEntity
  8
0
  6
Continuous
 62
     7
370
     0
100
AcDbLine
 10
1038.1331271063
 20
401.4061315854
 30
0.0
 11
1056.1331271063
 21
401.4061315854
 31
0.0
  0
SOLID
  5
1D3
330
1F
100
AcDbEntity
  8
0
  6
Continuous
 62
     7
370
     0
100
AcDbTrace
 10
1056.1331271063
 20
401.4061315854
 30
0.0
 11
1048.1331271063
 21
403.4061315854
 31
0.0
 12
1048.1331271063
 22
399.4061315854
 32
0.0
 13
1048.1331271063
 23
399.4061315854
 33
0.0
  0
LINE
  5
1D4
330
1F
100
AcDbEntity
  8
0
  6
Continuous
 62
     7
370
     0
100
AcDbLine
 10
1038.1331271063
 20
350.5209396615
 30
0.0
 11
1056.1331271063
 21
350.5209396615
 31
0.0
  0
SOLID
  5
1D5
330
1F
100
AcDbEntity
  8
0
  6
Continuous
 62
     7
370
     0
100
AcDbTrace
 10
1056.1331271063
 20
350.5209396615
 30
0.0
 11
1048.1331271063
 21
352.5209396615
 31
0.0
 12
1048.1331271063
 22
348.5209396615
 32
0.0
 13
1048.1331271063
 23
348.5209396615
 33
0.0
  0
MTEXT
  5
1D6
330
1F
100
AcDbEntity
  8
0
  6
Continuous
 62
     7
100
AcDbMText
 10
1038.1331271063
 20
408.307815368
 30
0.0
 40
4.5
 41
0.0
 71
     1
 72
     1
  1
B
  7
SLDTEXTSTYLE0
 73
     1
 44
1.0
  0
MTEXT
  5
1D7
330
1F
100
AcDbEntity
  8
0
  6
Continuous
 62
     7
100
AcDbMText
 10
1038.1331271063
 20
357.4226234441
 30
0.0
 40
4.5
 41
0.0
 71
     1
 72
     1
  1
B
  7
SLDTEXTSTYLE0
 73
     1
 44
1.0
  0
LINE
  5
1D8
330
1F
100
AcDbEntity
  8
0
  6
Continuous
 62
     7
370
    15
100
AcDbLine
 10
900.1396181199
 20
317.2478460798
 30
0.0
 11
900.1396181199
 21
318.6689251193
 31
0.0
  0
LINE
  5
1D9
330
1F
100
AcDbEntity
  8
0
  6
Continuous
 62
     7
370
    15
100
AcDbLine
 10
900.1396181199
 20
318.6689251193
 30
0.0
 11
911.1396178274
 21
320.4217747876
 31
0.0
  0
LINE
  5
1DA
330
1F
100
AcDbEntity
  8
0
  6
Continuous
 62
     7
370
    15
100
AcDbLine
 10
911.1396178274
 20
320.4217747876
 30
0.0
 11
1059.2669373515
 21
322.1556888053
 31
0.0
  0
LINE
  5
1DB
330
1F
100
AcDbEntity
  8
0
  6
Continuous
 62
     7
370
    15
100
AcDbLine
 10
1058.4020441535
 20
319.1003956923
 30
0.0
 11
1059.2669373515
 21
322.1556888053
 31
0.0
  0
LINE
  5
1DC
330
1F
100
AcDbEntity
  8
0
  6
Continuous
 62
     7
370
    15
100
AcDbLine
 10
900.1396181199
 20
317.2478460798
 30
0.0
 11
1058.4020441535
 21
319.1003956923
 31
0.0
  0
LINE
  5
1DD
330
1F
100
AcDbEntity
  8
0
  6
Continuous
 62
     7
370
    15
100
AcDbLine
 10
1059.2669373515
 20
307.7191234657
 30
0.0
 11
1059.2669373515
 21
322.1556888053
 31
0.0
  0
LINE
  5
1DE
330
1F
100
AcDbEntity
  8
0
  6
Continuous
 62
     7
370
    15
100
AcDbLine
 10
1058.4020441535
 20
307.7191234657
 30
0.0
 11
1059.2669373515
 21
307.7191234657
 31
0.0
  0
LINE
  5
1DF
330
1F
100
AcDbEntity
  8
0
  6
Continuous
 62
     7
370
    15
100
AcDbLine
 10
1058.4020441535
 20
307.7191234657
 30
0.0
 11
1058.4020441535
 21
319.1003956923
 31
0.0
  0
CIRCLE
  5
1E0
330
1F
100
AcDbEntity
  8
0
  6
Continuous
 62
     7
370
    15
100
AcDbCircle
 10
944.6296178725
 20
311.7191230783
 30
0.0
 40
2.25
  0
CIRCLE
  5
1E1
330
1F
100
AcDbEntity
  8
0
  6
Continuous
 62
     7
370
    15
100
AcDbCircle
 10
1025.4596178725
 20
311.7191230783
 30
0.0
 40
2.25
  0
CIRCLE
  5
1E2
330
1F
100
AcDbEntity
  8
0
  6
Continuous
 62
     7
370
    15
100
AcDbCircle
 10
925.1396178725
 20
311.7191230783
 30
0.0
 40
2.25
  0
LINE
  5
1E3
330
1F
100
AcDbEntity
  8
0
  6
Continuous
 62
     7
370
    15
100
AcDbLine
 10
1050.459620929
 20
307.7191234657
 30
0.0
 11
1058.4020441535
 21
307.7191234657
 31
0.0
  0
LINE
  5
1E4
330
1F
100
AcDbEntity
  8
0
  6
Continuous
 62
     7
370
    15
100
AcDbLine
 10
1050.459620929
 20
307.7191234657
 30
0.0
 11
1050.459620929
 21
309.7191237935
 31
0.0
  0
LINE
  5
1E5
330
1F
100
AcDbEntity
  8
0
  6
Continuous
 62
     7
370
    15
100
AcDbLine
 10
1050.459620929
 20
309.7191237935
 30
0.0
 11
1042.4596196177
 21
309.7191237935
 31
0.0
  0
LINE
  5
1E6
330
1F
100
AcDbEntity
  8
0
  6
Continuous
 62
     7
370
    15
100
AcDbLine
 10
1042.4596196177
 20
309.7191237935
 30
0.0
 11
1042.4596196177
 21
307.7191234657
 31
0.0
  0
LINE
  5
1E7
330
1F
100
AcDbEntity
  8
0
  6
Continuous
 62
     7
370
    15
100
AcDbLine
 10
940.6296176973
 20
307.7191234657
 30
0.0
 11
1042.4596196177
 21
307.7191234657
 31
0.0
  0
LINE
  5
1E8
330
1F
100
AcDbEntity
  8
0
  6
Continuous
 62
     7
370
    15
100
AcDbLine
 10
940.6296176973
 20
307.7191234657
 30
0.0
 11
940.6296176973
 21
309.7191237935
 31
0.0
  0
LINE
  5
1E9
330
1F
100
AcDbEntity
  8
0
  6
Continuous
 62
     7
370
    15
100
AcDbLine
 10
940.6296176973
 20
309.7191237935
 30
0.0
 11
928.629617593
 21
309.7191237935
 31
0.0
  0
LINE
  5
1EA
330
1F
100
AcDbEntity
  8
0
  6
Continuous
 62
     7
370
    15
100
AcDbLine
 10
928.629617593
 20
309.7191237935
 30
0.0
 11
928.629617593
 21
307.7191234657
 31
0.0
  0
LINE
  5
1EB
330
1F
100
AcDbEntity
  8
0
  6
Continuous
 62
     7
370
    15
100
AcDbLine
 10
900.1396181199
 20
307.7191234657
 30
0.0
 11
928.629617593
 21
307.7191234657
 31
0.0
  0
LINE
  5
1EC
330
1F
100
AcDbEntity
  8
0
  6
Continuous
 62
     7
370
    15
100
AcDbLine
 10
900.1396181199
 20
317.2478460798
 30
0.0
 11
900.1396181199
 21
307.7191234657
 31
0.0
  0
CIRCLE
  5
1ED
330
1F
100
AcDbEntity
  8
0
  6
Continuous
 62
     7
370
    15
100
AcDbCircle
 10
944.6296178725
 20
259.2191230783
 30
0.0
 40
2.25
  0
CIRCLE
  5
1EE
330
1F
100
AcDbEntity
  8
0
  6
Continuous
 62
     7
370
    15
100
AcDbCircle
 10
925.1396178725
 20
259.2191230783
 30
0.0
 40
2.25
  0
CIRCLE
  5
1EF
330
1F
100
AcDbEntity
  8
0
  6
Continuous
 62
     7
370
    15
100
AcDbCircle
 10
1025.4596178725
 20
259.2191230783
 30
0.0
 40
2.25
  0
LINE
  5
1F0
330
1F
100
AcDbEntity
  8
0
  6
Continuous
 62
     7
370
    15
100
AcDbLine
 10
900.1396181199
 20
263.2191226908
 30
0.0
 11
900.1396181199
 21
250.2153077254
 31
0.0
  0
LINE
  5
1F1
330
1F
100
AcDbEntity
  8
0
  6
Continuous
 62
     7
370
    15
100
AcDbLine
 10
928.629617593
 20
263.2191226908
 30
0.0
 11
900.1396181199
 21
263.2191226908
 31
0.0
  0
LINE
  5
1F2
330
1F
100
AcDbEntity
  8
0
  6
Continuous
 62
     7
370
    15
100
AcDbLine
 10
928.629617593
 20
261.219122363
 30
0.0
 11
940.6296176973
 21
261.219122363
 31
0.0
  0
LINE
  5
1F3
330
1F
100
AcDbEntity
  8
0
  6
Continuous
 62
     7
370
    15
100
AcDbLine
 10
940.6296176973
 20
261.219122363
 30
0.0
 11
940.6296176973
 21
263.2191226908
 31
0.0
  0
LINE
  5
1F4
330
1F
100
AcDbEntity
  8
0
  6
Continuous
 62
     7
370
    15
100
AcDbLine
 10
1042.4596196177
 20
263.2191226908
 30
0.0
 11
940.6296176973
 21
263.2191226908
 31
0.0
  0
LINE
  5
1F5
330
1F
100
AcDbEntity
  8
0
  6
Continuous
 62
     7
370
    15
100
AcDbLine
 10
1042.4596196177
 20
263.2191226908
 30
0.0
 11
1042.4596196177
 21
261.219122363
 31
0.0
  0
LINE
  5
1F6
330
1F
100
AcDbEntity
  8
0
  6
Continuous
 62
     7
370
    15
100
AcDbLine
 10
1042.4596196177
 20
261.219122363
 30
0.0
 11
1050.459620929
 21
261.219122363
 31
0.0
  0
LINE
  5
1F7
330
1F
100
AcDbEntity
  8
0
  6
Continuous
 62
     7
370
    15
100
AcDbLine
 10
1050.459620929
 20
261.219122363
 30
0.0
 11
1050.459620929
 21
263.2191226908
 31
0.0
  0
LINE
  5
1F8
330
1F
100
AcDbEntity
  8
0
  6
Continuous
 62
     7
370
    15
100
AcDbLine
 10
1058.4020441535
 20
263.2191226908
 30
0.0
 11
1050.459620929
 21
263.2191226908
 31
0.0
  0
LINE
  5
1F9
330
1F
100
AcDbEntity
  8
0
  6
Continuous
 62
     7
370
    15
100
AcDbLine
 10
1058.4020441535
 20
249.2886231372
 30
0.0
 11
1058.4020441535
 21
263.2191226908
 31
0.0
  0
LINE
  5
1FA
330
1F
100
AcDbEntity
  8
0
  6
Continuous
 62
     7
370
    15
100
AcDbLine
 10
1058.4020441535
 20
249.2886231372
 30
0.0
 11
900.1396181199
 21
250.2153077254
 31
0.0
  0
LINE
  5
1FB
330
1F
100
AcDbEntity
  8
0
  6
Continuous
 62
     7
370
    15
100
AcDbLine
 10
928.629617593
 20
263.2191226908
 30
0.0
 11
928.629617593
 21
261.219122363
 31
0.0
  0
LINE
  5
1FC
330
1F
100
AcDbEntity
  8
0
  6
Continuous
 62
     7
370
    15
100
AcDbLine
 10
1059.2669373515
 20
247.7603004405
 30
0.0
 11
1059.2669373515
 21
263.2191226908
 31
0.0
  0
LINE
  5
1FD
330
1F
100
AcDbEntity
  8
0
  6
Continuous
 62
     7
370
    15
100
AcDbLine
 10
1059.2669373515
 20
247.7603004405
 30
0.0
 11
1058.4020441535
 21
249.2886231372
 31
0.0
  0
LINE
  5
1FE
330
1F
100
AcDbEntity
  8
0
  6
Continuous
 62
     7
370
    15
100
AcDbLine
 10
1059.2669373515
 20
263.2191226908
 30
0.0
 11
1058.4020441535
 21
263.2191226908
 31
0.0
  0
LINE
  5
1FF
330
1F
100
AcDbEntity
  8
0
  6
Continuous
 62
     7
370
    15
100
AcDbLine
 10
1059.2669373515
 20
247.7603004405
 30
0.0
 11
911.1396178274
 21
248.6276411542
 31
0.0
  0
LINE
  5
200
330
1F
100
AcDbEntity
  8
0
  6
Continuous
 62
     7
370
    15
100
AcDbLine
 10
911.1396178274
 20
248.6276411542
 30
0.0
 11
900.1396181199
 21
249.5044552812
 31
0.0
  0
LINE
  5
201
330
1F
100
AcDbEntity
  8
0
  6
Continuous
 62
     7
370
    15
100
AcDbLine
 10
900.1396181199
 20
249.5044552812
 30
0.0
 11
900.1396181199
 21
250.2153077254
 31
0.0
  0
DIMENSION
  5
202
330
1F
100
AcDbEntity
  8
SLD-0
100
AcDbDimension
  2
_D
 10
1058.4020460014
 20
332.1556877978
 30
0.0
 11
979.2708319369
 21
332.1556877978
 31
0.0
 70
   160
  1
<>
 71
     2
 42
-1.0
  3
SLDDIMSTYLE1
100
AcDbAlignedDimension
 13
900.1396178725
 23
318.6689238957
 33
0.0
 14
1058.4020460014
 24
319.10039474
 34
0.0
 50
0.0
100
AcDbRotatedDimension
  0
DIMENSION
  5
20D
330
1F
100
AcDbEntity
  8
SLD-0
100
AcDbDimension
  2
_D_1
 10
911.1327488269
 20
263.2191230783
 30
0.0
 11
911.1327488269
 21
285.4691230783
 31
0.0
 70
   160
  1
<>
 71
     2
 42
-1.0
  3
SLDDIMSTYLE2
100
AcDbAlignedDimension
 13
900.1396178725
 23
307.7191230783
 33
0.0
 14
900.1396178725
 24
263.2191230783
 34
0.0
 50
90.0
100
AcDbRotatedDimension
  0
LINE
  5
216
330
1F
100
AcDbEntity
  8
0
  6
Continuous
 62
     7
370
    15
100
AcDbLine
 10
1102.9208402955
 20
365.5168396901
 30
0.0
 11
1090.2181889736
 21
365.5168396901
 31
0.0
  0
LINE
  5
217
330
1F
100
AcDbEntity
  8
0
  6
Continuous
 62
     7
370
    15
100
AcDbLine
 10
1090.2181889736
 20
365.5168396901
 30
0.0
 11
1093.2633567476
 21
380.5168393549
 31
0.0
  0
LINE
  5
218
330
1F
100
AcDbEntity
  8
0
  6
Continuous
 62
     7
370
    15
100
AcDbLine
 10
1102.9208402955
 20
380.5168393549
 30
0.0
 11
1093.2633567476
 21
380.5168393549
 31
0.0
  0
LINE
  5
219
330
1F
100
AcDbEntity
  8
0
  6
Continuous
 62
     7
370
    15
100
AcDbLine
 10
1102.9208402955
 20
380.5168393549
 30
0.0
 11
1102.9208402955
 21
365.5168396901
 31
0.0
  0
LINE
  5
21A
330
1F
100
AcDbEntity
  8
0
  6
Continuous
 62
     7
370
    15
100
AcDbLine
 10
1091.5395680689
 20
380.5168393549
 30
0.0
 11
1088.4842749559
 21
365.5168396901
 31
0.0
  0
LINE
  5
21B
330
1F
100
AcDbEntity
  8
0
  6
Continuous
 62
     7
370
    15
100
AcDbLine
 10
1090.2181889736
 20
365.5168396901
 30
0.0
 11
1088.4842749559
 21
365.5168396901
 31
0.0
  0
LINE
  5
21C
330
1F
100
AcDbEntity
  8
0
  6
Continuous
 62
     7
370
    15
100
AcDbLine
 10
1093.2633567476
 20
380.5168393549
 30
0.0
 11
1091.5395680689
 21
380.5168393549
 31
0.0
  0
LINE
  5
21D
330
1F
100
AcDbEntity
  8
0
  6
Continuous
 62
     7
370
    15
100
AcDbLine
 10
1160.4890663051
 20
380.5168393549
 30
0.0
 11
1147.4208410703
 21
380.5168393549
 31
0.0
  0
LINE
  5
21E
330
1F
100
AcDbEntity
  8
0
  6
Continuous
 62
     7
370
    15
100
AcDbLine
 10
1160.4890663051
 20
380.5168393549
 30
0.0
 11
1162.012322607
 21
365.5168396901
 31
0.0
  0
LINE
  5
21F
330
1F
100
AcDbEntity
  8
0
  6
Continuous
 62
     7
370
    15
100
AcDbLine
 10
1147.4208410703
 20
365.5168396901
 30
0.0
 11
1147.4208410703
 21
380.5168393549
 31
0.0
  0
LINE
  5
220
330
1F
100
AcDbEntity
  8
0
  6
Continuous
 62
     7
370
    15
100
AcDbLine
 10
1162.012322607
 20
365.5168396901
 30
0.0
 11
1147.4208410703
 21
365.5168396901
 31
0.0
  0
LINE
  5
221
330
1F
100
AcDbEntity
  8
0
  6
Continuous
 62
     7
370
    15
100
AcDbLine
 10
1162.8796633207
 20
365.5168396901
 30
0.0
 11
1161.351340624
 21
380.5168393549
 31
0.0
  0
LINE
  5
222
330
1F
100
AcDbEntity
  8
0
  6
Continuous
 62
     7
370
    15
100
AcDbLine
 10
1161.351340624
 20
380.5168393549
 30
0.0
 11
1160.4890663051
 21
380.5168393549
 31
0.0
  0
LINE
  5
223
330
1F
100
AcDbEntity
  8
0
  6
Continuous
 62
     7
370
    15
100
AcDbLine
 10
1162.8796633207
 20
365.5168396901
 30
0.0
 11
1162.012322607
 21
365.5168396901
 31
0.0
  0
HATCH
  5
224
330
1F
100
AcDbEntity
  8
0
  6
Continuous
 62
     7
370
     0
100
AcDbHatch
 10
0.0
 20
0.0
 30
0.0
210
0.0
220
0.0
230
1.0
  2
ANSI31
 70
     0
 71
     0
 91
        1
 92
        0
 93
        4
 72
     1
 10
1162.012322850557
 20
365.5168396901414
 11
1160.489064598349
 21
380.5168396901414
 72
     1
 10
1160.489064598349
 20
380.5168396901414
 11
1147.420840682913
 21
380.5168396901414
 72
     1
 10
1147.420840682913
 20
380.5168396901414
 11
1147.420840682913
 21
365.5168396901414
 72
     1
 10
1147.420840682913
 20
365.5168396901414
 11
1162.012322850557
 21
365.5168396901414
 97
        0
 75
     0
 76
     1
 52
0.0
 41
1.0
 77
     0
 78
     1
 53
45.0
 43
0.0
 44
0.0
 45
-2.245064030267288
 46
2.245064030267288
 79
     0
 98
        1
 10
0.0
 20
0.0
  0
HATCH
  5
225
330
1F
100
AcDbEntity
  8
0
  6
Continuous
 62
     7
370
     0
100
AcDbHatch
 10
0.0
 20
0.0
 30
0.0
210
0.0
220
0.0
230
1.0
  2
ANSI31
 70
     0
 71
     0
 91
        1
 92
        0
 93
        4
 72
     1
 10
1102.920840682913
 20
365.5168396901415
 11
1102.920840682913
 21
380.5168396901414
 72
     1
 10
1102.920840682913
 20
380.5168396901414
 11
1093.263357610416
 21
380.5168396901414
 72
     1
 10
1093.263357610416
 20
380.5168396901414
 11
1090.218188624269
 21
365.5168396901414
 72
     1
 10
1090.218188624269
 20
365.5168396901414
 11
1102.920840682913
 21
365.5168396901415
 97
        0
 75
     0
 76
     1
 52
0.0
 41
1.0
 77
     0
 78
     1
 53
45.0
 43
0.0
 44
0.0
 45
-2.245064030267288
 46
2.245064030267288
 79
     0
 98
        1
 10
0.0
 20
0.0
  0
DIMENSION
  5
226
330
1F
100
AcDbEntity
  8
SLD-0
100
AcDbDimension
  2
_D_2
 10
1102.9208406829
 20
390.5168396901
 30
0.0
 11
1098.0920991467
 21
390.5168396901
 31
0.0
 70
   160
  1
<>
 71
     2
 42
-1.0
  3
SLDDIMSTYLE3
100
AcDbAlignedDimension
 13
1093.2633576104
 23
380.5168396901
 33
0.0
 14
1102.9208406829
 24
380.5168396901
 34
0.0
100
AcDbRotatedDimension
  0
DIMENSION
  5
233
330
1F
100
AcDbEntity
  8
SLD-0
100
AcDbDimension
  2
_D_3
 10
1102.9208406829
 20
355.5168396901
 30
0.0
 11
1096.5695146536
 21
355.5168396901
 31
0.0
 70
   160
  1
<>
 71
     2
 42
-1.0
  3
SLDDIMSTYLE3
100
AcDbAlignedDimension
 13
1090.2181886243
 23
365.5168396901
 33
0.0
 14
1102.9208406829
 24
365.5168396901
 34
0.0
 50
0.0
100
AcDbRotatedDimension
  0
DIMENSION
  5
23F
330
1F
100
AcDbEntity
  8
SLD-0
100
AcDbDimension
  2
_D_4
 10
1162.0123228506
 20
355.5168396901
 30
0.0
 11
1154.7165817667
 21
355.5168396901
 31
0.0
 70
   160
  1
<>
 71
     2
 42
-1.0
  3
SLDDIMSTYLE3
100
AcDbAlignedDimension
 13
1147.4208406829
 23
365.5168396901
 33
0.0
 14
1162.0123228506
 24
365.5168396901
 34
0.0
100
AcDbRotatedDimension
  0
DIMENSION
  5
24B
330
1F
100
AcDbEntity
  8
SLD-0
100
AcDbDimension
  2
_D_5
 10
1160.4890645983
 20
390.5168396901
 30
0.0
 11
1153.9549526406
 21
390.5168396901
 31
0.0
 70
   160
  1
<>
 71
     2
 42
-1.0
  3
SLDDIMSTYLE3
100
AcDbAlignedDimension
 13
1147.4208406829
 23
380.5168396901
 33
0.0
 14
1160.4890645983
 24
380.5168396901
 34
0.0
100
AcDbRotatedDimension
  0
DIMENSION
  5
257
330
1F
100
AcDbEntity
  8
SLD-0
100
AcDbDimension
  2
_D_6
 10
1172.879662818
 20
365.5168396901
 30
0.0
 11
1172.879662818
 21
373.0168396901
 31
0.0
 70
   160
  1
<>
 71
     2
 42
-1.0
  3
SLDDIMSTYLE4
100
AcDbAlignedDimension
 13
1161.35134029
 23
380.5168396901
 33
0.0
 14
1162.879662818
 24
365.5168396901
 34
0.0
 50
90.0
100
AcDbRotatedDimension
  0
MTEXT
  5
265
330
1F
100
AcDbEntity
  8
SLD-0
100
AcDbMText
 10
1125.5048861517
 20
373.6889181786
 30
0.0
 40
2.5
 41
0.0
 71
     2
 72
     1
  1
A-A  (1 : 1)
  7
SLDTEXTSTYLE1
 73
     1
 44
1.0
  0
LINE
  5
266
330
1F
100
AcDbEntity
  8
0
  6
Continuous
 62
     7
370
    15
100
AcDbLine
 10
1091.5395680689
 20
321.8892960254
 30
0.0
 11
1088.4842749559
 21
306.8892963607
 31
0.0
  0
LINE
  5
267
330
1F
100
AcDbEntity
  8
0
  6
Continuous
 62
     7
370
    15
100
AcDbLine
 10
1088.5209578895
 20
306.8892963607
 30
0.0
 11
1091.5661293887
 21
321.8892960254
 31
0.0
  0
LINE
  5
268
330
1F
100
AcDbEntity
  8
0
  6
Continuous
 62
     7
370
    15
100
AcDbLine
 10
1091.5661293887
 20
321.8892960254
 30
0.0
 11
1091.5395680689
 21
321.8892960254
 31
0.0
  0
LINE
  5
269
330
1F
100
AcDbEntity
  8
0
  6
Continuous
 62
     7
370
    15
100
AcDbLine
 10
1088.5209578895
 20
306.8892963607
 30
0.0
 11
1088.4842749559
 21
306.8892963607
 31
0.0
  0
LINE
  5
26A
330
1F
100
AcDbEntity
  8
0
  6
Continuous
 62
     7
370
    15
100
AcDbLine
 10
1102.9208402955
 20
321.8892960254
 30
0.0
 11
1102.9208402955
 21
306.8892963607
 31
0.0
  0
LINE
  5
26B
330
1F
100
AcDbEntity
  8
0
  6
Continuous
 62
     7
370
    15
100
AcDbLine
 10
1102.9208402955
 20
321.8892960254
 30
0.0
 11
1091.5661293887
 21
321.8892960254
 31
0.0
  0
LINE
  5
26C
330
1F
100
AcDbEntity
  8
0
  6
Continuous
 62
     7
370
    15
100
AcDbLine
 10
1102.9208402955
 20
306.8892963607
 30
0.0
 11
1088.5209578895
 21
306.8892963607
 31
0.0
  0
LINE
  5
26D
330
1F
100
AcDbEntity
  8
0
  6
Continuous
 62
     7
370
    15
100
AcDbLine
 10
1161.3380562388
 20
321.8892960254
 30
0.0
 11
1147.4208410703
 21
321.8892960254
 31
0.0
  0
LINE
  5
26E
330
1F
100
AcDbEntity
  8
0
  6
Continuous
 62
     7
370
    15
100
AcDbLine
 10
1161.3380562388
 20
321.8892960254
 30
0.0
 11
1162.8613125407
 21
306.8892963607
 31
0.0
  0
LINE
  5
26F
330
1F
100
AcDbEntity
  8
0
  6
Continuous
 62
     7
370
    15
100
AcDbLine
 10
1162.8613125407
 20
306.8892963607
 30
0.0
 11
1147.4208410703
 21
306.8892963607
 31
0.0
  0
LINE
  5
270
330
1F
100
AcDbEntity
  8
0
  6
Continuous
 62
     7
370
    15
100
AcDbLine
 10
1147.4208410703
 20
306.8892963607
 30
0.0
 11
1147.4208410703
 21
321.8892960254
 31
0.0
  0
LINE
  5
271
330
1F
100
AcDbEntity
  8
0
  6
Continuous
 62
     7
370
    15
100
AcDbLine
 10
1162.8796633207
 20
306.8892963607
 30
0.0
 11
1161.351340624
 21
321.8892960254
 31
0.0
  0
LINE
  5
272
330
1F
100
AcDbEntity
  8
0
  6
Continuous
 62
     7
370
    15
100
AcDbLine
 10
1162.8796633207
 20
306.8892963607
 30
0.0
 11
1162.8613125407
 21
306.8892963607
 31
0.0
  0
LINE
  5
273
330
1F
100
AcDbEntity
  8
0
  6
Continuous
 62
     7
370
    15
100
AcDbLine
 10
1161.351340624
 20
321.8892960254
 30
0.0
 11
1161.3380562388
 21
321.8892960254
 31
0.0
  0
HATCH
  5
274
330
1F
100
AcDbEntity
  8
0
  6
Continuous
 62
     7
370
     0
100
AcDbHatch
 10
0.0
 20
0.0
 30
0.0
210
0.0
220
0.0
230
1.0
  2
ANSI31
 70
     0
 71
     0
 91
        1
 92
        0
 93
        4
 72
     1
 10
1147.420840682913
 20
321.8892963607012
 11
1147.420840682913
 21
306.8892963607012
 72
     1
 10
1147.420840682913
 20
306.8892963607012
 11
1162.861313187358
 21
306.8892963607012
 72
     1
 10
1162.861313187358
 20
306.8892963607012
 11
1161.33805493515
 21
321.8892963607012
 72
     1
 10
1161.33805493515
 20
321.8892963607012
 11
1147.420840682913
 21
321.8892963607012
 97
        0
 75
     0
 76
     1
 52
0.0
 41
1.0
 77
     0
 78
     1
 53
45.0
 43
0.0
 44
0.0
 45
-2.245064030267288
 46
2.245064030267288
 79
     0
 98
        1
 10
0.0
 20
0.0
  0
HATCH
  5
275
330
1F
100
AcDbEntity
  8
0
  6
Continuous
 62
     7
370
     0
100
AcDbHatch
 10
0.0
 20
0.0
 30
0.0
210
0.0
220
0.0
230
1.0
  2
ANSI31
 70
     0
 71
     0
 91
        1
 92
        0
 93
        4
 72
     1
 10
1102.920840682913
 20
306.8892963607012
 11
1102.920840682913
 21
321.8892963607012
 72
     1
 10
1102.920840682913
 20
321.8892963607012
 11
1091.566127978201
 21
321.8892963607012
 72
     1
 10
1091.566127978201
 20
321.8892963607012
 11
1088.520958992054
 21
306.8892963607012
 72
     1
 10
1088.520958992054
 20
306.8892963607012
 11
1102.920840682913
 21
306.8892963607012
 97
        0
 75
     0
 76
     1
 52
0.0
 41
1.0
 77
     0
 78
     1
 53
45.0
 43
0.0
 44
0.0
 45
-2.245064030267288
 46
2.245064030267288
 79
     0
 98
        1
 10
0.0
 20
0.0
  0
DIMENSION
  5
276
330
1F
100
AcDbEntity
  8
SLD-0
100
AcDbDimension
  2
_D_7
 10
1091.5395690212
 20
331.8892963607
 30
0.0
 11
1097.230204852
 21
331.8892963607
 31
0.0
 70
   160
  1
<>
 71
     2
 42
-1.0
  3
SLDDIMSTYLE3
100
AcDbAlignedDimension
 13
1102.9208406829
 23
321.8892963607
 33
0.0
 14
1091.5395690212
 24
321.8892963607
 34
0.0
100
AcDbRotatedDimension
  0
DIMENSION
  5
282
330
1F
100
AcDbEntity
  8
SLD-0
100
AcDbDimension
  2
_D_8
 10
1088.4842759634
 20
296.8892963607
 30
0.0
 11
1095.7025583232
 21
296.8892963607
 31
0.0
 70
   160
  1
<>
 71
     2
 42
-1.0
  3
SLDDIMSTYLE3
100
AcDbAlignedDimension
 13
1102.9208406829
 23
306.8892963607
 33
0.0
 14
1088.4842759634
 24
306.8892963607
 34
0.0
100
AcDbRotatedDimension
  0
DIMENSION
  5
28E
330
1F
100
AcDbEntity
  8
SLD-0
100
AcDbDimension
  2
_D_9
 10
1147.4208406829
 20
331.8892963607
 30
0.0
 11
1154.3860904864
 21
331.8892963607
 31
0.0
 70
   160
  1
<>
 71
     2
 42
-1.0
  3
SLDDIMSTYLE3
100
AcDbAlignedDimension
 13
1161.35134029
 23
321.8892963607
 33
0.0
 14
1147.4208406829
 24
321.8892963607
 34
0.0
100
AcDbRotatedDimension
  0
DIMENSION
  5
29A
330
1F
100
AcDbEntity
  8
SLD-0
100
AcDbDimension
  2
_D_10
 10
1147.4208406829
 20
296.8892963607
 30
0.0
 11
1155.1502517505
 21
296.8892963607
 31
0.0
 70
   160
  1
<>
 71
     2
 42
-1.0
  3
SLDDIMSTYLE3
100
AcDbAlignedDimension
 13
1162.879662818
 23
306.8892963607
 33
0.0
 14
1147.4208406829
 24
306.8892963607
 34
0.0
100
AcDbRotatedDimension
  0
MTEXT
  5
2A6
330
1F
100
AcDbEntity
  8
SLD-0
100
AcDbMText
 10
1126.2862402853
 20
315.321826227
 30
0.0
 40
2.5
 41
0.0
 71
     2
 72
     1
  1
B-B  (1 : 1)
  7
SLDTEXTSTYLE1
 73
     1
 44
1.0
  0
LINE
  5
2A7
330
1F
100
AcDbEntity
  8
0
  6
Continuous
 62
     7
370
    15
100
AcDbLine
 10
223.0383713936
 20
193.8614711501
 30
0.0
 11
223.0383713936
 21
208.8614708731
 31
0.0
  0
LINE
  5
2A8
330
1F
100
AcDbEntity
  8
0
  6
Continuous
 62
     7
370
    15
100
AcDbLine
 10
223.0383713936
 20
208.8614708731
 30
0.0
 11
221.0383747911
 21
208.8614708731
 31
0.0
  0
LINE
  5
2A9
330
1F
100
AcDbEntity
  8
0
  6
Continuous
 62
     7
370
    15
100
AcDbLine
 10
221.0383747911
 20
208.8614708731
 30
0.0
 11
221.0383747911
 21
193.8614711501
 31
0.0
  0
LINE
  5
2AA
330
1F
100
AcDbEntity
  8
0
  6
Continuous
 62
     7
370
    15
100
AcDbLine
 10
221.0383747911
 20
193.8614711501
 30
0.0
 11
223.0383713936
 21
193.8614711501
 31
0.0
  0
CIRCLE
  5
2AB
330
1F
100
AcDbEntity
  8
0
  6
Continuous
 62
     7
370
    15
100
AcDbCircle
 10
169.0383733606
 20
182.8614711264
 30
0.0
 40
1.350000000000023
  0
CIRCLE
  5
2AC
330
1F
100
AcDbEntity
  8
0
  6
Continuous
 62
     7
370
    15
100
AcDbCircle
 10
122.0383733606
 20
192.8614711264
 30
0.0
 40
1.349999999999994
  0
LINE
  5
2AD
330
1F
100
AcDbEntity
  8
0
  6
Continuous
 62
     7
370
    15
100
AcDbLine
 10
113.0383733867
 20
213.8614716926
 30
0.0
 11
113.0383733867
 21
203.3614709029
 31
0.0
  0
LINE
  5
2AE
330
1F
100
AcDbEntity
  8
0
  6
Continuous
 62
     7
370
    15
100
AcDbLine
 10
265.0383745527
 20
213.8614716926
 30
0.0
 11
113.0383733867
 21
213.8614716926
 31
0.0
  0
LINE
  5
2AF
330
1F
100
AcDbEntity
  8
0
  6
Continuous
 62
     7
370
    15
100
AcDbLine
 10
265.0383745527
 20
203.3614709029
 30
0.0
 11
265.0383745527
 21
213.8614716926
 31
0.0
  0
LINE
  5
2B0
330
1F
100
AcDbEntity
  8
0
  6
Continuous
 62
     7
370
    15
100
AcDbLine
 10
268.0383806324
 20
203.3614709029
 30
0.0
 11
265.0383745527
 21
203.3614709029
 31
0.0
  0
LINE
  5
2B1
330
1F
100
AcDbEntity
  8
0
  6
Continuous
 62
     7
370
    15
100
AcDbLine
 10
268.0383806324
 20
183.3614713499
 30
0.0
 11
268.0383806324
 21
203.3614709029
 31
0.0
  0
LINE
  5
2B2
330
1F
100
AcDbEntity
  8
0
  6
Continuous
 62
     7
370
    15
100
AcDbLine
 10
265.0383745527
 20
183.3614713499
 30
0.0
 11
268.0383806324
 21
183.3614713499
 31
0.0
  0
LINE
  5
2B3
330
1F
100
AcDbEntity
  8
0
  6
Continuous
 62
     7
370
    15
100
AcDbLine
 10
265.0383745527
 20
172.8614705602
 30
0.0
 11
265.0383745527
 21
183.3614713499
 31
0.0
  0
LINE
  5
2B4
330
1F
100
AcDbEntity
  8
0
  6
Continuous
 62
     7
370
    15
100
AcDbLine
 10
113.0383733867
 20
172.8614705602
 30
0.0
 11
265.0383745527
 21
172.8614705602
 31
0.0
  0
LINE
  5
2B5
330
1F
100
AcDbEntity
  8
0
  6
Continuous
 62
     7
370
    15
100
AcDbLine
 10
113.0383733867
 20
183.3614713499
 30
0.0
 11
113.0383733867
 21
172.8614705602
 31
0.0
  0
LINE
  5
2B6
330
1F
100
AcDbEntity
  8
0
  6
Continuous
 62
     7
370
    15
100
AcDbLine
 10
110.0383733606
 20
183.3614713499
 30
0.0
 11
113.0383733867
 21
183.3614713499
 31
0.0
  0
LINE
  5
2B7
330
1F
100
AcDbEntity
  8
0
  6
Continuous
 62
     7
370
    15
100
AcDbLine
 10
110.0383733606
 20
203.3614709029
 30
0.0
 11
110.0383733606
 21
183.3614713499
 31
0.0
  0
LINE
  5
2B8
330
1F
100
AcDbEntity
  8
0
  6
Continuous
 62
     7
370
    15
100
AcDbLine
 10
113.0383733867
 20
203.3614709029
 30
0.0
 11
110.0383733606
 21
203.3614709029
 31
0.0
  0
LINE
  5
2B9
330
1F
100
AcDbEntity
  8
0
  6
Continuous
 62
     7
370
    15
100
AcDbLine
 10
166.0383750891
 20
177.8614713797
 30
0.0
 11
166.0383750891
 21
197.8614709327
 31
0.0
  0
LINE
  5
2BA
330
1F
100
AcDbEntity
  8
0
  6
Continuous
 62
     7
370
    15
100
AcDbLine
 10
166.0383750891
 20
197.8614709327
 30
0.0
 11
125.0383730253
 21
197.8614709327
 31
0.0
  0
LINE
  5
2BB
330
1F
100
AcDbEntity
  8
0
  6
Continuous
 62
     7
370
    15
100
AcDbLine
 10
125.0383730253
 20
197.8614709327
 30
0.0
 11
125.0383730253
 21
177.8614713797
 31
0.0
  0
LINE
  5
2BC
330
1F
100
AcDbEntity
  8
0
  6
Continuous
 62
     7
370
    15
100
AcDbLine
 10
125.0383730253
 20
177.8614713797
 30
0.0
 11
166.0383750891
 21
177.8614713797
 31
0.0
  0
CIRCLE
  5
2BD
330
1F
100
AcDbEntity
  8
0
  6
Continuous
 62
     7
370
    15
100
AcDbCircle
 10
122.0383733606
 20
182.8614711264
 30
0.0
 40
1.350000000000023
  0
CIRCLE
  5
2BE
330
1F
100
AcDbEntity
  8
0
  6
Continuous
 62
     7
370
    15
100
AcDbCircle
 10
169.0383733606
 20
192.8614711264
 30
0.0
 40
1.349999999999994
  0
INSERT
  5
2C4
330
1F
100
AcDbEntity
  8
SLD-0
100
AcDbBlockReference
  2
SW_NOTE_16
 10
261.0189117717
 20
232.3972647723
 30
0.0
  0
LEADER
  5
2C5
330
1F
100
AcDbEntity
  8
SLD-0
100
AcDbLeader
  3
SLDDIMSTYLE0
 76
     2
 10
252.4466577174
 20
209.0490967531
 30
0.0
 10
261.0189117717
 20
232.3972647723
 30
0.0
  0
INSERT
  5
2CA
330
1F
100
AcDbEntity
  8
SLD-0
100
AcDbBlockReference
  2
SW_NOTE_17
 10
265.5
 20
228.7058823529
 30
0.0
  0
LEADER
  5
2CB
330
1F
100
AcDbEntity
  8
SLD-0
100
AcDbLeader
  3
SLDDIMSTYLE0
 76
     2
 10
252.4274971893
 20
209.0315042982
 30
0.0
 10
265.5
 20
228.7058823529
 30
0.0
  0
CIRCLE
  5
2CC
330
1F
100
AcDbEntity
  8
0
  6
Continuous
 62
     7
370
    15
100
AcDbCircle
 10
412.2346069776
 20
192.3523285135
 30
0.0
 40
5.0
  0
LINE
  5
2CD
330
1F
100
AcDbEntity
  8
0
  6
Continuous
 62
     7
370
    15
100
AcDbLine
 10
399.7346067913
 20
175.8523286085
 30
0.0
 11
404.7346071452
 21
175.8523286085
 31
0.0
  0
LINE
  5
2CE
330
1F
100
AcDbEntity
  8
0
  6
Continuous
 62
     7
370
    15
100
AcDbLine
 10
399.7346067913
 20
192.3523287519
 30
0.0
 11
399.7346067913
 21
175.8523286085
 31
0.0
  0
ARC
  5
2CF
330
1F
100
AcDbEntity
  8
0
  6
Continuous
 62
     7
370
    15
100
AcDbCircle
 10
412.2346069776
 20
192.3523285135
 30
0.0
 40
12.5
100
AcDbArc
 50
0.0
 51
180.0
  0
LINE
  5
2D0
330
1F
100
AcDbEntity
  8
0
  6
Continuous
 62
     7
370
    15
100
AcDbLine
 10
424.7346071638
 20
175.8523286085
 30
0.0
 11
424.7346071638
 21
192.3523287519
 31
0.0
  0
LINE
  5
2D1
330
1F
100
AcDbEntity
  8
0
  6
Continuous
 62
     7
370
    15
100
AcDbLine
 10
419.7346068099
 20
175.8523286085
 30
0.0
 11
424.7346071638
 21
175.8523286085
 31
0.0
  0
LINE
  5
2D2
330
1F
100
AcDbEntity
  8
0
  6
Continuous
 62
     7
370
    15
100
AcDbLine
 10
419.7346068099
 20
173.8523285135
 30
0.0
 11
419.7346068099
 21
175.8523286085
 31
0.0
  0
LINE
  5
2D3
330
1F
100
AcDbEntity
  8
0
  6
Continuous
 62
     7
370
    15
100
AcDbLine
 10
404.7346071452
 20
173.8523285135
 30
0.0
 11
419.7346068099
 21
173.8523285135
 31
0.0
  0
LINE
  5
2D4
330
1F
100
AcDbEntity
  8
0
  6
Continuous
 62
     7
370
    15
100
AcDbLine
 10
404.7346071452
 20
175.8523286085
 30
0.0
 11
404.7346071452
 21
173.8523285135
 31
0.0
  0
INSERT
  5
2DA
330
1F
100
AcDbEntity
  8
SLD-0
100
AcDbBlockReference
  2
SW_NOTE_18
 10
439.0986034363
 20
193.6502850182
 30
0.0
  0
LEADER
  5
2DB
330
1F
100
AcDbEntity
  8
SLD-0
100
AcDbLeader
  3
SLDDIMSTYLE0
 76
     2
 10
420.4953037897
 20
184.4229500423
 30
0.0
 10
439.0986034363
 20
193.6502850182
 30
0.0
  0
INSERT
  5
2E0
330
1F
100
AcDbEntity
  8
SLD-0
100
AcDbBlockReference
  2
SW_NOTE_19
 10
439.9705882353
 20
184.9411764706
 30
0.0
  0
LEADER
  5
2E1
330
1F
100
AcDbEntity
  8
SLD-0
100
AcDbLeader
  3
SLDDIMSTYLE0
 76
     2
 10
420.4005426366
 20
184.4046225235
 30
0.0
 10
439.9705882353
 20
184.9411764706
 30
0.0
  0
LINE
  5
2E2
330
1F
100
AcDbEntity
  8
0
  6
Continuous
 62
     7
370
    15
100
AcDbLine
 10
80.0604090271
 20
429.467652697
 30
0.0
 11
40.1758179975
 21
429.4699558091
 31
0.0
  0
ARC
  5
2E3
330
1F
100
AcDbEntity
  8
0
  6
Continuous
 62
     7
370
    15
100
AcDbCircle
 10
113.0603709915
 20
429.4658537126
 30
0.0
 40
32.9999999999998
100
AcDbArc
 50
179.9966960654
 51
359.9966960654
  0
LINE
  5
2E4
330
1F
100
AcDbEntity
  8
0
  6
Continuous
 62
     7
370
    15
100
AcDbLine
 10
185.9449669433
 20
429.4616235871
 30
0.0
 11
146.0603759137
 21
429.4639266992
 31
0.0
  0
LINE
  5
2E5
330
1F
100
AcDbEntity
  8
0
  6
Continuous
 62
     7
370
    15
100
AcDbLine
 10
180.3891995043
 20
413.6468479597
 30
0.0
 11
185.9449669433
 21
429.4616235871
 31
0.0
  0
LINE
  5
2E6
330
1F
100
AcDbEntity
  8
0
  6
Continuous
 62
     7
370
    15
100
AcDbLine
 10
183.2195831278
 20
412.6526222541
 30
0.0
 11
180.3891995043
 21
413.6468479597
 31
0.0
  0
LINE
  5
2E7
330
1F
100
AcDbEntity
  8
0
  6
Continuous
 62
     7
370
    15
100
AcDbLine
 10
173.2761971329
 20
384.3483579774
 30
0.0
 11
183.2195831278
 21
412.6526222541
 31
0.0
  0
LINE
  5
2E8
330
1F
100
AcDbEntity
  8
0
  6
Continuous
 62
     7
370
    15
100
AcDbLine
 10
170.4457345123
 20
385.3428086339
 30
0.0
 11
173.2761971329
 21
384.3483579774
 31
0.0
  0
LINE
  5
2E9
330
1F
100
AcDbEntity
  8
0
  6
Continuous
 62
     7
370
    15
100
AcDbLine
 10
167.1313011896
 20
375.9079797143
 30
0.0
 11
170.4457345123
 21
385.3428086339
 31
0.0
  0
LINE
  5
2EA
330
1F
100
AcDbEntity
  8
0
  6
Continuous
 62
     7
370
    15
100
AcDbLine
 10
58.9832916116
 20
375.9141122204
 30
0.0
 11
167.1313011896
 21
375.9079797143
 31
0.0
  0
LINE
  5
2EB
330
1F
100
AcDbEntity
  8
0
  6
Continuous
 62
     7
370
    15
100
AcDbLine
 10
55.6699158868
 20
385.3492248626
 30
0.0
 11
58.9832916116
 21
375.9141122204
 31
0.0
  0
LINE
  5
2EC
330
1F
100
AcDbEntity
  8
0
  6
Continuous
 62
     7
370
    15
100
AcDbLine
 10
52.8393793701
 20
384.3552111886
 30
0.0
 11
55.6699158868
 21
385.3492248626
 31
0.0
  0
LINE
  5
2ED
330
1F
100
AcDbEntity
  8
0
  6
Continuous
 62
     7
370
    15
100
AcDbLine
 10
42.8991731988
 20
412.6607740662
 30
0.0
 11
52.8393793701
 21
384.3552111886
 31
0.0
  0
LINE
  5
2EE
330
1F
100
AcDbEntity
  8
0
  6
Continuous
 62
     7
370
    15
100
AcDbLine
 10
45.7297097155
 20
413.6547877402
 30
0.0
 11
42.8991731988
 21
412.6607740662
 31
0.0
  0
LINE
  5
2EF
330
1F
100
AcDbEntity
  8
0
  6
Continuous
 62
     7
370
    15
100
AcDbLine
 10
40.1758179975
 20
429.4699558091
 30
0.0
 11
45.7297097155
 21
413.6547877402
 31
0.0
  0
INSERT
  5
2F5
330
1F
100
AcDbEntity
  8
SLD-0
100
AcDbBlockReference
  2
SW_NOTE_20
 10
38.7936205121
 20
395.9215745978
 30
0.0
  0
LEADER
  5
2F6
330
1F
100
AcDbEntity
  8
SLD-0
100
AcDbLeader
  3
SLDDIMSTYLE0
 76
     2
 10
62.1631574631
 20
403.9681311945
 30
0.0
 10
38.7936205121
 20
395.9215745978
 30
0.0
  0
INSERT
  5
2FB
102
{ACAD_REACTORS
330
2FC
102
}
330
1F
100
AcDbEntity
  8
SLD-0
100
AcDbBlockReference
  2
SW_NOTE_21
 10
38.8529411765
 20
405.5294117647
 30
0.0
  0
LEADER
  5
2FC
330
1F
100
AcDbEntity
  8
SLD-0
100
AcDbLeader
  3
SLDDIMSTYLE0
 73
     2
 76
     2
 10
62.1025963406
 20
403.9037432885
 30
0.0
 10
38.8529411765
 20
405.5294117647
 30
0.0
340
2FB
  0
LINE
  5
2FD
330
1F
100
AcDbEntity
  8
0
  6
Continuous
 62
     7
370
    15
100
AcDbLine
 10
43.3759864139
 20
31.2274900476
 30
0.0
 11
75.3759879338
 21
31.2274900476
 31
0.0
  0
LINE
  5
2FE
330
1F
100
AcDbEntity
  8
0
  6
Continuous
 62
     7
370
    15
100
AcDbLine
 10
93.375987159
 20
81.2274907926
 30
0.0
 11
43.3759864139
 21
81.2274907926
 31
0.0
  0
LINE
  5
2FF
330
1F
100
AcDbEntity
  8
0
  6
Continuous
 62
     7
370
    15
100
AcDbLine
 10
75.3759879338
 20
31.2274900476
 30
0.0
 11
93.375987159
 21
81.2274907926
 31
0.0
  0
LINE
  5
300
330
1F
100
AcDbEntity
  8
0
  6
Continuous
 62
     7
370
    15
100
AcDbLine
 10
43.3759864139
 20
81.2274907926
 30
0.0
 11
43.3759864139
 21
31.2274900476
 31
0.0
  0
INSERT
  5
306
330
1F
100
AcDbEntity
  8
SLD-0
100
AcDbBlockReference
  2
SW_NOTE_22
 10
71.5539763025
 20
93.043456382
 30
0.0
  0
LEADER
  5
307
330
1F
100
AcDbEntity
  8
SLD-0
100
AcDbLeader
  3
SLDDIMSTYLE0
 76
     2
 10
68.0647964402
 20
75.2133757566
 30
0.0
 10
71.5539763025
 20
93.043456382
 30
0.0
  0
INSERT
  5
30C
330
1F
100
AcDbEntity
  8
SLD-0
100
AcDbBlockReference
  2
SW_NOTE_23
 10
53.5
 20
117.8823529412
 30
0.0
  0
LEADER
  5
30D
330
1F
100
AcDbEntity
  8
SLD-0
100
AcDbLeader
  3
SLDDIMSTYLE0
 76
     2
 10
68.0115977411
 20
75.2437700456
 30
0.0
 10
53.5
 20
117.8823529412
 30
0.0
  0
LINE
  5
30E
330
1F
100
AcDbEntity
  8
0
  6
Continuous
 62
     7
370
    15
100
AcDbLine
 10
153.1034485082
 20
33.6647256158
 30
0.0
 11
176.1034485529
 21
33.6647256158
 31
0.0
  0
LINE
  5
30F
330
1F
100
AcDbEntity
  8
0
  6
Continuous
 62
     7
370
    15
100
AcDbLine
 10
176.1034485529
 20
83.6647263608
 30
0.0
 11
153.1034485082
 21
83.6647263608
 31
0.0
  0
LINE
  5
310
330
1F
100
AcDbEntity
  8
0
  6
Continuous
 62
     7
370
    15
100
AcDbLine
 10
176.1034485529
 20
33.6647256158
 30
0.0
 11
176.1034485529
 21
83.6647263608
 31
0.0
  0
LINE
  5
311
330
1F
100
AcDbEntity
  8
0
  6
Continuous
 62
     7
370
    15
100
AcDbLine
 10
153.1034485082
 20
83.6647263608
 30
0.0
 11
153.1034485082
 21
33.6647256158
 31
0.0
  0
INSERT
  5
317
330
1F
100
AcDbEntity
  8
SLD-0
100
AcDbBlockReference
  2
SW_NOTE_24
 10
170.0541025471
 20
93.4692411719
 30
0.0
  0
LEADER
  5
318
330
1F
100
AcDbEntity
  8
SLD-0
100
AcDbLeader
  3
SLDDIMSTYLE0
 76
     2
 10
165.6169541346
 20
77.9027836128
 30
0.0
 10
170.0541025471
 20
93.4692411719
 30
0.0
  0
INSERT
  5
31D
330
1F
100
AcDbEntity
  8
SLD-0
100
AcDbBlockReference
  2
SW_NOTE_25
 10
153.5
 20
116.7058823529
 30
0.0
  0
LEADER
  5
31E
330
1F
100
AcDbEntity
  8
SLD-0
100
AcDbLeader
  3
SLDDIMSTYLE0
 76
     2
 10
165.4369925946
 20
78.0760731622
 30
0.0
 10
153.5
 20
116.7058823529
 30
0.0
  0
CIRCLE
  5
31F
330
1F
100
AcDbEntity
  8
0
  6
Continuous
 62
     7
370
    15
100
AcDbCircle
 10
326.7562393635
 20
56.6402614781
 30
0.0
 40
1.0
  0
CIRCLE
  5
320
330
1F
100
AcDbEntity
  8
0
  6
Continuous
 62
     7
370
    15
100
AcDbCircle
 10
326.7562393635
 20
56.6402614781
 30
0.0
 40
6.0
  0
DIMENSION
  5
321
330
1F
100
AcDbEntity
  8
SLD-0
100
AcDbDimension
  2
_D_11
 10
322.1727335824
 20
52.7683788928
 30
0.0
 11
345.1622176741
 21
67.0813520183
 31
0.0
 70
   163
  1
<>
 71
     1
 42
-1.0
  3
SLDDIMSTYLE5
100
AcDbDiametricDimension
 15
331.3397451446
 25
60.5121440634
 35
0.0
 40
0.0
  0
DIMENSION
  5
32F
330
1F
100
AcDbEntity
  8
SLD-0
100
AcDbDimension
  2
_D_12
 10
325.9307526909
 20
57.2046830876
 30
0.0
 11
345.5467449856
 21
50.73894128
 31
0.0
 70
   163
  1
<>
 71
     1
 42
-1.0
  3
SLDDIMSTYLE5
100
AcDbDiametricDimension
 15
327.5817260362
 25
56.0758398687
 35
0.0
 40
0.0
  0
INSERT
  5
33E
330
1F
100
AcDbEntity
  8
SLD-0
100
AcDbBlockReference
  2
SW_NOTE_26
 10
331.7566139803
 20
91.5942737594
 30
0.0
  0
LEADER
  5
33F
330
1F
100
AcDbEntity
  8
SLD-0
100
AcDbLeader
  3
SLDDIMSTYLE0
 76
     2
 10
326.3095411086
 20
60.228196409
 30
0.0
 10
331.7566139803
 20
91.5942737594
 30
0.0
  0
INSERT
  5
344
330
1F
100
AcDbEntity
  8
SLD-0
100
AcDbBlockReference
  2
SW_NOTE_27
 10
335.3823529412
 20
88.2352941176
 30
0.0
  0
LEADER
  5
345
330
1F
100
AcDbEntity
  8
SLD-0
100
AcDbLeader
  3
SLDDIMSTYLE0
 76
     2
 10
326.3417810117
 20
60.2318567868
 30
0.0
 10
335.3823529412
 20
88.2352941176
 30
0.0
  0
LINE
  5
346
330
1F
100
AcDbEntity
  8
0
  6
Continuous
 62
     7
370
    15
100
AcDbLine
 10
999.7296157364
 20
474.586424895
 30
0.0
 11
989.7296178225
 21
464.5864251185
 31
0.0
  0
LINE
  5
347
330
1F
100
AcDbEntity
  8
0
  6
Continuous
 62
     7
370
    15
100
AcDbLine
 10
999.7296157364
 20
474.586424895
 30
0.0
 11
999.7296157364
 21
503.5864240605
 31
0.0
  0
LINE
  5
348
330
1F
100
AcDbEntity
  8
0
  6
Continuous
 62
     7
370
    15
100
AcDbLine
 10
989.7296178225
 20
513.586423837
 30
0.0
 11
999.7296157364
 21
503.5864240605
 31
0.0
  0
LINE
  5
349
330
1F
100
AcDbEntity
  8
0
  6
Continuous
 62
     7
370
    15
100
AcDbLine
 10
989.7296178225
 20
513.586423837
 30
0.0
 11
933.729616094
 21
513.586423837
 31
0.0
  0
LINE
  5
34A
330
1F
100
AcDbEntity
  8
0
  6
Continuous
 62
     7
370
    15
100
AcDbLine
 10
923.7296181802
 20
503.5864240605
 30
0.0
 11
933.729616094
 21
513.586423837
 31
0.0
  0
LINE
  5
34B
330
1F
100
AcDbEntity
  8
0
  6
Continuous
 62
     7
370
    15
100
AcDbLine
 10
923.7296181802
 20
503.5864240605
 30
0.0
 11
923.7296181802
 21
474.586424895
 31
0.0
  0
LINE
  5
34C
330
1F
100
AcDbEntity
  8
0
  6
Continuous
 62
     7
370
    15
100
AcDbLine
 10
933.729616094
 20
464.5864251185
 30
0.0
 11
923.7296181802
 21
474.586424895
 31
0.0
  0
LINE
  5
34D
330
1F
100
AcDbEntity
  8
0
  6
Continuous
 62
     7
370
    15
100
AcDbLine
 10
933.729616094
 20
464.5864251185
 30
0.0
 11
989.7296178225
 21
464.5864251185
 31
0.0
  0
LINE
  5
34E
330
1F
100
AcDbEntity
  8
0
  6
Continuous
 62
     7
370
    15
100
AcDbLine
 10
913.729616541
 20
523.5864236135
 30
0.0
 11
913.729616541
 21
454.586425342
 31
0.0
  0
LINE
  5
34F
330
1F
100
AcDbEntity
  8
0
  6
Continuous
 62
     7
370
    15
100
AcDbLine
 10
1009.7296173755
 20
523.5864236135
 30
0.0
 11
913.729616541
 21
523.5864236135
 31
0.0
  0
LINE
  5
350
330
1F
100
AcDbEntity
  8
0
  6
Continuous
 62
     7
370
    15
100
AcDbLine
 10
1009.7296173755
 20
454.586425342
 30
0.0
 11
1009.7296173755
 21
523.5864236135
 31
0.0
  0
LINE
  5
351
330
1F
100
AcDbEntity
  8
0
  6
Continuous
 62
     7
370
    15
100
AcDbLine
 10
913.729616541
 20
454.586425342
 30
0.0
 11
1009.7296173755
 21
454.586425342
 31
0.0
  0
CIRCLE
  5
352
330
1F
100
AcDbEntity
  8
0
  6
Continuous
 62
     7
370
    15
100
AcDbCircle
 10
926.7296169583
 20
467.5864244777
 30
0.0
 40
0.7500000000001137
  0
CIRCLE
  5
353
330
1F
100
AcDbEntity
  8
0
  6
Continuous
 62
     7
370
    15
100
AcDbCircle
 10
926.7296169583
 20
510.5864244777
 30
0.0
 40
0.7500000000001137
  0
CIRCLE
  5
354
330
1F
100
AcDbEntity
  8
0
  6
Continuous
 62
     7
370
    15
100
AcDbCircle
 10
996.7296169583
 20
510.5864244777
 30
0.0
 40
0.7499999999998863
  0
CIRCLE
  5
355
330
1F
100
AcDbEntity
  8
0
  6
Continuous
 62
     7
370
    15
100
AcDbCircle
 10
996.7296169583
 20
467.5864244777
 30
0.0
 40
0.7499999999998863
  0
INSERT
  5
35B
330
1F
100
AcDbEntity
  8
SLD-0
100
AcDbBlockReference
  2
SW_NOTE_28
 10
1007.7739010017
 20
533.5045486743
 30
0.0
  0
LEADER
  5
35C
330
1F
100
AcDbEntity
  8
SLD-0
100
AcDbLeader
  3
SLDDIMSTYLE0
 76
     2
 10
1003.2364512812
 20
515.3346906682
 30
0.0
 10
1007.7739010017
 20
533.5045486743
 30
0.0
  0
INSERT
  5
361
330
1F
100
AcDbEntity
  8
SLD-0
100
AcDbBlockReference
  2
SW_NOTE_29
 10
1003.5588235294
 20
531.6470588235
 30
0.0
  0
LEADER
  5
362
330
1F
100
AcDbEntity
  8
SLD-0
100
AcDbLeader
  3
SLDDIMSTYLE0
 76
     2
 10
1003.1447217031
 20
515.4348780632
 30
0.0
 10
1003.5588235294
 20
531.6470588235
 30
0.0
  0
LINE
  5
363
330
1F
100
AcDbEntity
  8
0
  6
Continuous
 62
     7
370
    15
100
AcDbLine
 10
1080.8447537952
 20
720.0012144204
 30
0.0
 11
1080.8447537952
 21
698.0012150053
 31
0.0
  0
LINE
  5
364
330
1F
100
AcDbEntity
  8
0
  6
Continuous
 62
     7
370
    15
100
AcDbLine
 10
1080.8447537952
 20
720.0012144204
 30
0.0
 11
1090.8447540373
 21
720.0012144204
 31
0.0
  0
LINE
  5
365
330
1F
100
AcDbEntity
  8
0
  6
Continuous
 62
     7
370
    15
100
AcDbLine
 10
1090.8447540373
 20
720.0012144204
 30
0.0
 11
1090.8447540373
 21
698.0012150053
 31
0.0
  0
CIRCLE
  5
366
330
1F
100
AcDbEntity
  8
0
  6
Continuous
 62
     7
370
    15
100
AcDbCircle
 10
1086.8447539628
 20
715.5012150612
 30
0.0
 40
0.75
  0
CIRCLE
  5
367
330
1F
100
AcDbEntity
  8
0
  6
Continuous
 62
     7
370
    15
100
AcDbCircle
 10
1086.8447539628
 20
701.5012150612
 30
0.0
 40
0.75
  0
LINE
  5
368
330
1F
100
AcDbEntity
  8
0
  6
Continuous
 62
     7
370
    15
100
AcDbLine
 10
1134.8447556616
 20
720.0012144204
 30
0.0
 11
1134.8447556616
 21
698.0012150053
 31
0.0
  0
LINE
  5
369
330
1F
100
AcDbEntity
  8
0
  6
Continuous
 62
     7
370
    15
100
AcDbLine
 10
1134.8447556616
 20
720.0012144204
 30
0.0
 11
1144.8447573007
 21
720.0012144204
 31
0.0
  0
LINE
  5
36A
330
1F
100
AcDbEntity
  8
0
  6
Continuous
 62
     7
370
    15
100
AcDbLine
 10
1144.8447573007
 20
720.0012144204
 30
0.0
 11
1144.8447573007
 21
698.0012150053
 31
0.0
  0
CIRCLE
  5
36B
330
1F
100
AcDbEntity
  8
0
  6
Continuous
 62
     7
370
    15
100
AcDbCircle
 10
1138.8447539628
 20
715.5012150612
 30
0.0
 40
0.7500000000002274
  0
CIRCLE
  5
36C
330
1F
100
AcDbEntity
  8
0
  6
Continuous
 62
     7
370
    15
100
AcDbCircle
 10
1138.8447539628
 20
701.5012150612
 30
0.0
 40
0.7500000000002274
  0
LINE
  5
36D
330
1F
100
AcDbEntity
  8
0
  6
Continuous
 62
     7
370
    15
100
AcDbLine
 10
1073.3447539628
 20
698.0012150053
 30
0.0
 11
1152.3447575987
 21
698.0012150053
 31
0.0
  0
LINE
  5
36E
330
1F
100
AcDbEntity
  8
0
  6
Continuous
 62
     7
370
    15
100
AcDbLine
 10
1073.3447539628
 20
695.5012150612
 30
0.0
 11
1152.3447575987
 21
695.5012150612
 31
0.0
  0
LINE
  5
36F
330
1F
100
AcDbEntity
  8
0
  6
Continuous
 62
     7
370
    15
100
AcDbLine
 10
1073.3447539628
 20
698.0012150053
 30
0.0
 11
1073.3447539628
 21
695.5012150612
 31
0.0
  0
LINE
  5
370
330
1F
100
AcDbEntity
  8
0
  6
Continuous
 62
     7
370
    15
100
AcDbLine
 10
1152.3447575987
 20
698.0012150053
 30
0.0
 11
1152.3447575987
 21
695.5012150612
 31
0.0
  0
INSERT
  5
376
330
1F
100
AcDbEntity
  8
SLD-0
100
AcDbBlockReference
  2
SW_NOTE_30
 10
1155.7394735
 20
714.3930440583
 30
0.0
  0
LEADER
  5
377
330
1F
100
AcDbEntity
  8
SLD-0
100
AcDbLeader
  3
SLDDIMSTYLE0
 76
     2
 10
1139.5168782658
 20
707.2273098305
 30
0.0
 10
1155.7394735
 20
714.3930440583
 30
0.0
  0
INSERT
  5
37C
330
1F
100
AcDbEntity
  8
SLD-0
100
AcDbBlockReference
  2
SW_NOTE_31
 10
1155.5
 20
705.6470588235
 30
0.0
  0
LEADER
  5
37D
330
1F
100
AcDbEntity
  8
SLD-0
100
AcDbLeader
  3
SLDDIMSTYLE0
 76
     2
 10
1139.4100235866
 20
707.309532153
 30
0.0
 10
1155.5
 20
705.6470588235
 30
0.0
  0
LINE
  5
37E
330
1F
100
AcDbEntity
  8
0
  6
Continuous
 62
     7
370
    15
100
AcDbLine
 10
1090.8447540373
 20
645.4873677159
 30
0.0
 11
1080.8447537952
 21
645.4873677159
 31
0.0
  0
LINE
  5
37F
330
1F
100
AcDbEntity
  8
0
  6
Continuous
 62
     7
370
    15
100
AcDbLine
 10
1090.8447540373
 20
625.4873663003
 30
0.0
 11
1090.8447540373
 21
645.4873677159
 31
0.0
  0
LINE
  5
380
330
1F
100
AcDbEntity
  8
0
  6
Continuous
 62
     7
370
    15
100
AcDbLine
 10
1080.8447537952
 20
625.4873663003
 30
0.0
 11
1090.8447540373
 21
625.4873663003
 31
0.0
  0
LINE
  5
381
330
1F
100
AcDbEntity
  8
0
  6
Continuous
 62
     7
370
    15
100
AcDbLine
 10
1080.8447537952
 20
645.4873677159
 30
0.0
 11
1080.8447537952
 21
625.4873663003
 31
0.0
  0
LINE
  5
382
330
1F
100
AcDbEntity
  8
0
  6
Continuous
 62
     7
370
    15
100
AcDbLine
 10
1144.8447573007
 20
625.4873663003
 30
0.0
 11
1144.8447573007
 21
645.4873677159
 31
0.0
  0
LINE
  5
383
330
1F
100
AcDbEntity
  8
0
  6
Continuous
 62
     7
370
    15
100
AcDbLine
 10
1134.8447556616
 20
625.4873663003
 30
0.0
 11
1144.8447573007
 21
625.4873663003
 31
0.0
  0
LINE
  5
384
330
1F
100
AcDbEntity
  8
0
  6
Continuous
 62
     7
370
    15
100
AcDbLine
 10
1134.8447556616
 20
645.4873677159
 30
0.0
 11
1134.8447556616
 21
625.4873663003
 31
0.0
  0
LINE
  5
385
330
1F
100
AcDbEntity
  8
0
  6
Continuous
 62
     7
370
    15
100
AcDbLine
 10
1144.8447573007
 20
645.4873677159
 30
0.0
 11
1134.8447556616
 21
645.4873677159
 31
0.0
  0
LINE
  5
386
330
1F
100
AcDbEntity
  8
0
  6
Continuous
 62
     7
370
    15
100
AcDbLine
 10
1152.3447575987
 20
670.4873662258
 30
0.0
 11
1073.3447539628
 21
670.4873662258
 31
0.0
  0
LINE
  5
387
330
1F
100
AcDbEntity
  8
0
  6
Continuous
 62
     7
370
    15
100
AcDbLine
 10
1152.3447575987
 20
611.4873658682
 30
0.0
 11
1152.3447575987
 21
670.4873662258
 31
0.0
  0
LINE
  5
388
330
1F
100
AcDbEntity
  8
0
  6
Continuous
 62
     7
370
    15
100
AcDbLine
 10
1073.3447539628
 20
611.4873658682
 30
0.0
 11
1152.3447575987
 21
611.4873658682
 31
0.0
  0
CIRCLE
  5
389
330
1F
100
AcDbEntity
  8
0
  6
Continuous
 62
     7
370
    15
100
AcDbCircle
 10
1077.3447539628
 20
666.4873658682
 30
0.0
 40
1.0
  0
CIRCLE
  5
38A
330
1F
100
AcDbEntity
  8
0
  6
Continuous
 62
     7
370
    15
100
AcDbCircle
 10
1148.3447539628
 20
666.4873658682
 30
0.0
 40
1.0
  0
CIRCLE
  5
38B
330
1F
100
AcDbEntity
  8
0
  6
Continuous
 62
     7
370
    15
100
AcDbCircle
 10
1148.3447539628
 20
615.4873658682
 30
0.0
 40
1.0
  0
CIRCLE
  5
38C
330
1F
100
AcDbEntity
  8
0
  6
Continuous
 62
     7
370
    15
100
AcDbCircle
 10
1077.3447539628
 20
615.4873658682
 30
0.0
 40
1.0
  0
ARC
  5
38D
330
1F
100
AcDbEntity
  8
0
  6
Continuous
 62
     7
370
    15
100
AcDbCircle
 10
1118.3447539628
 20
664.4873658682
 30
0.0
 40
3.0
100
AcDbArc
 50
270.0
 51
90.0
  0
LINE
  5
38E
330
1F
100
AcDbEntity
  8
0
  6
Continuous
 62
     7
370
    15
100
AcDbLine
 10
1088.3447536276
 20
667.4873675967
 30
0.0
 11
1118.344755751
 21
667.4873675967
 31
0.0
  0
ARC
  5
38F
330
1F
100
AcDbEntity
  8
0
  6
Continuous
 62
     7
370
    15
100
AcDbCircle
 10
1088.3447539628
 20
664.4873658682
 30
0.0
 40
3.0
100
AcDbArc
 50
90.0
 51
270.0
  0
LINE
  5
390
330
1F
100
AcDbEntity
  8
0
  6
Continuous
 62
     7
370
    15
100
AcDbLine
 10
1118.344755751
 20
661.4873666132
 30
0.0
 11
1088.3447536276
 21
661.4873666132
 31
0.0
  0
LINE
  5
391
330
1F
100
AcDbEntity
  8
0
  6
Continuous
 62
     7
370
    15
100
AcDbLine
 10
1073.3447539628
 20
670.4873662258
 30
0.0
 11
1073.3447539628
 21
611.4873658682
 31
0.0
  0
INSERT
  5
397
330
1F
100
AcDbEntity
  8
SLD-0
100
AcDbBlockReference
  2
SW_NOTE_32
 10
1162.0296755282
 20
661.2441642852
 30
0.0
  0
LEADER
  5
398
330
1F
100
AcDbEntity
  8
SLD-0
100
AcDbLeader
  3
SLDDIMSTYLE0
 76
     2
 10
1145.0169851845
 20
654.0596096167
 30
0.0
 10
1162.0296755282
 20
661.2441642852
 30
0.0
  0
INSERT
  5
39D
330
1F
100
AcDbEntity
  8
SLD-0
100
AcDbBlockReference
  2
SW_NOTE_33
 10
1157.3823529412
 20
651.5294117647
 30
0.0
  0
LEADER
  5
39E
330
1F
100
AcDbEntity
  8
SLD-0
100
AcDbLeader
  3
SLDDIMSTYLE0
 76
     2
 10
1144.853476756
 20
654.1476491271
 30
0.0
 10
1157.3823529412
 20
651.5294117647
 30
0.0
  0
LINE
  5
39F
330
1F
100
AcDbEntity
  8
0
  6
Continuous
 62
     7
370
    15
100
AcDbLine
 10
1081.2224138995
 20
787.02171108
 30
0.0
 11
1081.2224138995
 21
768.1640309659
 31
0.0
  0
LINE
  5
3A0
330
1F
100
AcDbEntity
  8
0
  6
Continuous
 62
     7
370
    15
100
AcDbLine
 10
1081.2224138995
 20
787.02171108
 30
0.0
 11
1090.5563223387
 21
796.1318918609
 31
0.0
  0
LINE
  5
3A1
330
1F
100
AcDbEntity
  8
0
  6
Continuous
 62
     7
370
    15
100
AcDbLine
 10
1090.5563223387
 20
796.1318918609
 30
0.0
 11
1090.5563223387
 21
777.2742117468
 31
0.0
  0
LINE
  5
3A2
330
1F
100
AcDbEntity
  8
0
  6
Continuous
 62
     7
370
    15
100
AcDbLine
 10
1081.2224138995
 20
768.1640309659
 30
0.0
 11
1090.5563223387
 21
777.2742117468
 31
0.0
  0
LINE
  5
3A3
330
1F
100
AcDbEntity
  8
0
  6
Continuous
 62
     7
370
    15
100
AcDbLine
 10
1081.7121409078
 20
798.535550866
 30
0.0
 11
1072.3782324685
 21
789.425370085
 31
0.0
  0
LINE
  5
3A4
330
1F
100
AcDbEntity
  8
0
  6
Continuous
 62
     7
370
    15
100
AcDbLine
 10
1090.5563223387
 20
796.1318918609
 30
0.0
 11
1081.7121409078
 21
798.535550866
 31
0.0
  0
LINE
  5
3A5
330
1F
100
AcDbEntity
  8
0
  6
Continuous
 62
     7
370
    15
100
AcDbLine
 10
1072.3782324685
 20
789.425370085
 30
0.0
 11
1081.2224138995
 21
787.02171108
 31
0.0
  0
LINE
  5
3A6
330
1F
100
AcDbEntity
  8
0
  6
Continuous
 62
     7
370
    15
100
AcDbLine
 10
1072.3782324685
 20
789.425370085
 30
0.0
 11
1072.3782324685
 21
770.5676899709
 31
0.0
  0
LINE
  5
3A7
330
1F
100
AcDbEntity
  8
0
  6
Continuous
 62
     7
370
    15
100
AcDbLine
 10
1072.3782324685
 20
770.5676899709
 30
0.0
 11
1081.2224138995
 21
768.1640309659
 31
0.0
  0
LWPOLYLINE
  5
3A8
330
1F
100
AcDbEntity
  8
0
  6
Continuous
 62
     7
370
    15
100
AcDbPolyline
 90
       17
 70
   128
 43
0.0
 10
1077.0214275447
 20
784.3061964679
 10
1077.0719198643
 20
784.5384920059
 10
1077.2157077835
 20
784.7079771944
 10
1077.4309020446
 20
784.78884951
 10
1077.6847416566
 20
784.7687970871
 10
1077.9385804448
 20
784.6508733991
 10
1078.1537747059
 20
784.4530307052
 10
1078.2975634489
 20
784.2053883419
 10
1078.3480549447
 20
783.9456475667
 10
1078.2975634489
 20
783.7133534015
 10
1078.1537747059
 20
783.5438668402
 10
1077.9385804448
 20
783.4629945246
 10
1077.6847416566
 20
783.4830467236
 10
1077.4309020446
 20
783.6009706355
 10
1077.2157077835
 20
783.7988133294
 10
1077.0719198643
 20
784.0464570654
 10
1077.0214275447
 20
784.3061964679
  0
LWPOLYLINE
  5
3A9
330
1F
100
AcDbEntity
  8
0
  6
Continuous
 62
     7
370
    15
100
AcDbPolyline
 90
       17
 70
   128
 43
0.0
 10
1077.0214275447
 20
772.3058546859
 10
1077.0719198643
 20
772.5381498248
 10
1077.2157077835
 20
772.7076350133
 10
1077.4309020446
 20
772.7885077281
 10
1077.6847416566
 20
772.7684557043
 10
1077.9385804448
 20
772.6505316172
 10
1078.1537747059
 20
772.4526885241
 10
1078.2975634489
 20
772.2050461608
 10
1078.3480549447
 20
771.9453057848
 10
1078.2975634489
 20
771.7130104221
 10
1078.1537747059
 20
771.5435254574
 10
1077.9385804448
 20
771.4626527426
 10
1077.6847416566
 20
771.4827045425
 10
1077.4309020446
 20
771.6006288535
 10
1077.2157077835
 20
771.7984719466
 10
1077.0719198643
 20
772.046114086
 10
1077.0214275447
 20
772.3058546859
  0
LINE
  5
3AA
330
1F
100
AcDbEntity
  8
0
  6
Continuous
 62
     7
370
    15
100
AcDbLine
 10
1120.1368126898
 20
776.4456113235
 30
0.0
 11
1120.1368126898
 21
757.5879312094
 31
0.0
  0
LINE
  5
3AB
330
1F
100
AcDbEntity
  8
0
  6
Continuous
 62
     7
370
    15
100
AcDbLine
 10
1120.1368126898
 20
776.4456113235
 30
0.0
 11
1128.9809953562
 21
774.0419519827
 31
0.0
  0
LINE
  5
3AC
330
1F
100
AcDbEntity
  8
0
  6
Continuous
 62
     7
370
    15
100
AcDbLine
 10
1128.9809953562
 20
774.0419519827
 30
0.0
 11
1128.9809953562
 21
755.1842718686
 31
0.0
  0
LINE
  5
3AD
330
1F
100
AcDbEntity
  8
0
  6
Continuous
 62
     7
370
    15
100
AcDbLine
 10
1120.1368126898
 20
757.5879312094
 30
0.0
 11
1128.9809953562
 21
755.1842718686
 31
0.0
  0
LWPOLYLINE
  5
3AE
330
1F
100
AcDbEntity
  8
0
  6
Continuous
 62
     7
370
    15
100
AcDbPolyline
 90
       17
 70
   128
 43
0.0
 10
1124.3377941024
 20
771.4466219046
 10
1124.2873059013
 20
771.7063617844
 10
1124.143517982
 20
771.9540039238
 10
1123.9283204262
 20
772.1518475131
 10
1123.6744824616
 20
772.2697709772
 10
1123.4206444971
 20
772.2898229524
 10
1123.2054469412
 20
772.2089515322
 10
1123.061659022
 20
772.0394663437
 10
1123.0111708208
 20
771.8071696864
 10
1123.061659022
 20
771.5474314032
 10
1123.2054469412
 20
771.2997876672
 10
1123.4206444971
 20
771.1019440779
 10
1123.6744824616
 20
770.9840206137
 10
1123.9283204262
 20
770.9639686385
 10
1124.143517982
 20
771.0448400587
 10
1124.2873059013
 20
771.2143268439
 10
1124.3377941024
 20
771.4466219046
  0
LWPOLYLINE
  5
3AF
330
1F
100
AcDbEntity
  8
0
  6
Continuous
 62
     7
370
    15
100
AcDbPolyline
 90
       17
 70
   128
 43
0.0
 10
1124.3377941024
 20
759.4462801226
 10
1124.2873059013
 20
759.7060196033
 10
1124.143517982
 20
759.9536617427
 10
1123.9283204262
 20
760.1515057311
 10
1123.6744824616
 20
760.2694295945
 10
1123.4206444971
 20
760.2894811705
 10
1123.2054469412
 20
760.2086093511
 10
1123.061659022
 20
760.0391241626
 10
1123.0111708208
 20
759.8068279045
 10
1123.061659022
 20
759.5470884238
 10
1123.2054469412
 20
759.2994462844
 10
1123.4206444971
 20
759.101602296
 10
1123.6744824616
 20
758.9836784326
 10
1123.9283204262
 20
758.9636268566
 10
1124.143517982
 20
759.044498676
 10
1124.2873059013
 20
759.2139838645
 10
1124.3377941024
 20
759.4462801226
  0
LINE
  5
3B0
330
1F
100
AcDbEntity
  8
0
  6
Continuous
 62
     7
370
    15
100
AcDbLine
 10
1128.9809953562
 20
774.0419519827
 30
0.0
 11
1138.3149037955
 21
783.1521327636
 31
0.0
  0
LINE
  5
3B1
330
1F
100
AcDbEntity
  8
0
  6
Continuous
 62
     7
370
    15
100
AcDbLine
 10
1129.470721129
 20
785.5557921044
 30
0.0
 11
1120.1368126898
 21
776.4456113235
 31
0.0
  0
LINE
  5
3B2
330
1F
100
AcDbEntity
  8
0
  6
Continuous
 62
     7
370
    15
100
AcDbLine
 10
1138.3149037955
 20
783.1521327636
 30
0.0
 11
1129.470721129
 21
785.5557921044
 31
0.0
  0
LINE
  5
3B3
330
1F
100
AcDbEntity
  8
0
  6
Continuous
 62
     7
370
    15
100
AcDbLine
 10
1138.3149037955
 20
783.1521327636
 30
0.0
 11
1138.3149037955
 21
764.2944526495
 31
0.0
  0
LINE
  5
3B4
330
1F
100
AcDbEntity
  8
0
  6
Continuous
 62
     7
370
    15
100
AcDbLine
 10
1128.9809953562
 20
755.1842718686
 30
0.0
 11
1138.3149037955
 21
764.2944526495
 31
0.0
  0
LINE
  5
3B5
330
1F
100
AcDbEntity
  8
0
  6
Continuous
 62
     7
370
    15
100
AcDbLine
 10
1129.0803958857
 20
747.0044012947
 30
0.0
 11
1129.0803958857
 21
744.8614830908
 31
0.0
  0
LINE
  5
3B6
330
1F
100
AcDbEntity
  8
0
  6
Continuous
 62
     7
370
    15
100
AcDbLine
 10
1129.0803958857
 20
747.0044012947
 30
0.0
 11
1156.6154239995
 21
773.879432859
 31
0.0
  0
LINE
  5
3B7
330
1F
100
AcDbEntity
  8
0
  6
Continuous
 62
     7
370
    15
100
AcDbLine
 10
1156.6154239995
 20
773.879432859
 30
0.0
 11
1156.6154239995
 21
771.7365146552
 31
0.0
  0
LINE
  5
3B8
330
1F
100
AcDbEntity
  8
0
  6
Continuous
 62
     7
370
    15
100
AcDbLine
 10
1129.0803958857
 20
744.8614830908
 30
0.0
 11
1156.6154239995
 21
771.7365146552
 31
0.0
  0
LINE
  5
3B9
330
1F
100
AcDbEntity
  8
0
  6
Continuous
 62
     7
370
    15
100
AcDbLine
 10
1059.2113610575
 20
765.9933078487
 30
0.0
 11
1059.2113610575
 21
763.8503896448
 31
0.0
  0
LINE
  5
3BA
330
1F
100
AcDbEntity
  8
0
  6
Continuous
 62
     7
370
    15
100
AcDbLine
 10
1059.2113610575
 20
765.9933078487
 30
0.0
 11
1129.0803958857
 21
747.0044012947
 31
0.0
  0
LINE
  5
3BB
330
1F
100
AcDbEntity
  8
0
  6
Continuous
 62
     7
370
    15
100
AcDbLine
 10
1059.2113610575
 20
763.8503896448
 30
0.0
 11
1129.0803958857
 21
744.8614830908
 31
0.0
  0
LINE
  5
3BC
330
1F
100
AcDbEntity
  8
0
  6
Continuous
 62
     7
370
    15
100
AcDbLine
 10
1156.6154239995
 20
773.879432859
 30
0.0
 11
1138.3149007592
 21
778.853122943
 31
0.0
  0
LINE
  5
3BD
330
1F
100
AcDbEntity
  8
0
  6
Continuous
 62
     7
370
    15
100
AcDbLine
 10
1126.025471645
 20
782.1931264456
 30
0.0
 11
1090.5563217735
 21
791.8328813687
 31
0.0
  0
LINE
  5
3BE
330
1F
100
AcDbEntity
  8
0
  6
Continuous
 62
     7
370
    15
100
AcDbLine
 10
1072.3782328147
 20
778.8445783328
 30
0.0
 11
1059.2113610575
 21
765.9933078487
 31
0.0
  0
LWPOLYLINE
  5
3BF
330
1F
100
AcDbEntity
  8
0
  6
Continuous
 62
     7
370
    15
100
AcDbPolyline
 90
       17
 70
   128
 43
0.0
 10
1150.744274475
 20
772.5633520365
 10
1151.1182516103
 20
772.5060406381
 10
1151.5063428215
 20
772.526803785
 10
1151.8494678561
 20
772.6224750735
 10
1152.0953823957
 20
772.7784956786
 10
1152.2066617323
 20
772.971107247
 10
1152.1663496613
 20
773.1709906941
 10
1151.9805921638
 20
773.3477114545
 10
1151.6776654059
 20
773.4743701994
 10
1151.303686532
 20
773.5316799009
 10
1150.91559047
 20
773.5109202418
 10
1150.5724702862
 20
773.4152454655
 10
1150.3265491572
 20
773.2592266513
 10
1150.21527641
 20
773.066613292
 10
1150.2555836302
 20
772.8667333326
 10
1150.4413459786
 20
772.6900090845
 10
1150.744274475
 20
772.5633520365
  0
LWPOLYLINE
  5
3C0
330
1F
100
AcDbEntity
  8
0
  6
Continuous
 62
     7
370
    15
100
AcDbPolyline
 90
       17
 70
   128
 43
0.0
 10
1126.9428089981
 20
749.3323920633
 10
1127.316786894
 20
749.2750814073
 10
1127.7048772358
 20
749.2958437058
 10
1128.0480034657
 20
749.3915161609
 10
1128.2939177881
 20
749.5475365539
 10
1128.40519669
 20
749.740147698
 10
1128.3648841844
 20
749.940030721
 10
1128.1791275561
 20
750.1167523298
 10
1127.8761997116
 20
750.2434100141
 10
1127.5022219243
 20
750.3007207762
 10
1127.1141249931
 20
750.2799602686
 10
1126.7710052439
 20
750.1842859166
 10
1126.5250845495
 20
750.0282675266
 10
1126.4138120196
 20
749.8356543794
 10
1126.4541180445
 20
749.6357732534
 10
1126.6398812622
 20
749.4590498537
 10
1126.9428089981
 20
749.3323920633
  0
LWPOLYLINE
  5
3C1
330
1F
100
AcDbEntity
  8
0
  6
Continuous
 62
     7
370
    15
100
AcDbPolyline
 90
       17
 70
   128
 43
0.0
 10
1064.1491198912
 20
766.3983712566
 10
1064.5230969635
 20
766.3410608244
 10
1064.9111897763
 20
766.3618224513
 10
1065.2543143589
 20
766.4574953541
 10
1065.5002332115
 20
766.6135145159
 10
1065.6115075832
 20
766.8061268913
 10
1065.5711967249
 20
767.0060094665
 10
1065.3854376256
 20
767.1827317469
 10
1065.0825106048
 20
767.3093892074
 10
1064.7085332293
 20
767.3666998575
 10
1064.3204406224
 20
767.3459381747
 10
1063.9773159312
 20
767.2502651658
 10
1063.73139709
 20
767.0942462721
 10
1063.6201227069
 20
766.9016336286
 10
1063.6604336738
 20
766.7017511595
 10
1063.8461925672
 20
766.525028935
 10
1064.1491198912
 20
766.3983712566
  0
LINE
  5
3C2
330
1F
100
AcDbEntity
  8
0
  6
Continuous
 62
     7
370
    15
100
AcDbLine
 10
1098.6125751729
 20
787.8963246774
 30
0.0
 11
1124.625386118
 21
780.8266000497
 31
0.0
  0
LWPOLYLINE
  5
3C3
330
1F
100
AcDbEntity
  8
0
  6
Continuous
 62
     7
370
    15
100
AcDbPolyline
 90
       15
 70
   128
 43
0.0
 10
1095.8124023804
 20
785.1632701886
 10
1095.2571014079
 20
785.3579916704
 10
1094.7998501663
 20
785.611470706
 10
1094.4635793928
 20
785.9109995207
 10
1094.2651516027
 20
786.2415582082
 10
1094.2145141828
 20
786.5865698989
 10
1094.3142091143
 20
786.9287347267
 10
1094.5592339311
 20
787.2508941629
 10
1094.9373059899
 20
787.5368963791
 10
1095.429463988
 20
787.7723981548
 10
1096.0110294258
 20
787.9455884859
 10
1096.6528427262
 20
788.0477876491
 10
1097.3227183794
 20
788.0738674242
 10
1097.9870670323
 20
788.0225218108
 10
1098.6125751729
 20
787.8963246774
  0
LINE
  5
3C4
330
1F
100
AcDbEntity
  8
0
  6
Continuous
 62
     7
370
    15
100
AcDbLine
 10
1121.8252133254
 20
778.0935455608
 30
0.0
 11
1095.8124023804
 21
785.1632701886
 31
0.0
  0
LINE
  5
3C5
330
1F
100
AcDbEntity
  8
0
  6
Continuous
 62
     7
370
    15
100
AcDbLine
 10
1098.6125751729
 20
787.8963246774
 30
0.0
 11
1098.6125751729
 21
785.7534064735
 31
0.0
  0
LINE
  5
3C6
330
1F
100
AcDbEntity
  8
0
  6
Continuous
 62
     7
370
    15
100
AcDbLine
 10
1098.6125751729
 20
785.7534064735
 30
0.0
 11
1122.9080426737
 21
779.1504189957
 31
0.0
  0
ARC
  5
3C7
330
1F
100
AcDbEntity
  8
0
  6
Continuous
 62
     7
370
    15
100
AcDbCircle
 10
1097.2263508953
 20
780.8431704056
 30
0.0
 40
5.102159933922081
100
AcDbArc
 50
74.2349282943
 51
115.2370249426
  0
MTEXT
  5
3C8
330
1F
100
AcDbEntity
  8
SLD-0
100
AcDbMText
 10
1081.6410889557
 20
829.6615710863
 30
0.0
 40
4.0
 41
0.0
 71
     1
 72
     1
  1
\LSupport servo d'aileron
  7
SLDTEXTSTYLE0
 73
     1
 44
1.0
  0
LINE
  5
3C9
330
1F
100
AcDbEntity
  8
0
  6
Continuous
 62
     7
370
    15
100
AcDbLine
 10
1087.2936184803
 20
463.1627765911
 30
0.0
 11
1079.2936181003
 21
471.1627760397
 31
0.0
  0
LINE
  5
3CA
330
1F
100
AcDbEntity
  8
0
  6
Continuous
 62
     7
370
    15
100
AcDbLine
 10
1087.2936184803
 20
463.1627765911
 30
0.0
 11
1146.2936151126
 21
463.1627765911
 31
0.0
  0
LINE
  5
3CB
330
1F
100
AcDbEntity
  8
0
  6
Continuous
 62
     7
370
    15
100
AcDbLine
 10
1154.2936164239
 20
471.1627760397
 30
0.0
 11
1146.2936151126
 21
463.1627765911
 31
0.0
  0
LINE
  5
3CC
330
1F
100
AcDbEntity
  8
0
  6
Continuous
 62
     7
370
    15
100
AcDbLine
 10
1154.2936164239
 20
471.1627760397
 30
0.0
 11
1154.2936164239
 21
510.1627749818
 31
0.0
  0
LINE
  5
3CD
330
1F
100
AcDbEntity
  8
0
  6
Continuous
 62
     7
370
    15
100
AcDbLine
 10
1146.2936151126
 20
518.1627762931
 30
0.0
 11
1154.2936164239
 21
510.1627749818
 31
0.0
  0
LINE
  5
3CE
330
1F
100
AcDbEntity
  8
0
  6
Continuous
 62
     7
370
    15
100
AcDbLine
 10
1146.2936151126
 20
518.1627762931
 30
0.0
 11
1087.2936184803
 21
518.1627762931
 31
0.0
  0
LINE
  5
3CF
330
1F
100
AcDbEntity
  8
0
  6
Continuous
 62
     7
370
    15
100
AcDbLine
 10
1079.2936181003
 20
510.1627749818
 30
0.0
 11
1087.2936184803
 21
518.1627762931
 31
0.0
  0
LINE
  5
3D0
330
1F
100
AcDbEntity
  8
0
  6
Continuous
 62
     7
370
    15
100
AcDbLine
 10
1079.2936181003
 20
510.1627749818
 30
0.0
 11
1079.2936181003
 21
471.1627760397
 31
0.0
  0
LINE
  5
3D1
330
1F
100
AcDbEntity
  8
0
  6
Continuous
 62
     7
370
    15
100
AcDbLine
 10
1166.7936194042
 20
529.9627748745
 30
0.0
 11
1066.7936179141
 21
529.9627748745
 31
0.0
  0
LINE
  5
3D2
330
1F
100
AcDbEntity
  8
0
  6
Continuous
 62
     7
370
    15
100
AcDbLine
 10
1166.7936194042
 20
449.9627766626
 30
0.0
 11
1166.7936194042
 21
529.9627748745
 31
0.0
  0
LINE
  5
3D3
330
1F
100
AcDbEntity
  8
0
  6
Continuous
 62
     7
370
    15
100
AcDbLine
 10
1066.7936179141
 20
449.9627766626
 30
0.0
 11
1166.7936194042
 21
449.9627766626
 31
0.0
  0
LINE
  5
3D4
330
1F
100
AcDbEntity
  8
0
  6
Continuous
 62
     7
370
    15
100
AcDbLine
 10
1066.7936179141
 20
529.9627748745
 30
0.0
 11
1066.7936179141
 21
449.9627766626
 31
0.0
  0
CIRCLE
  5
3D5
330
1F
100
AcDbEntity
  8
0
  6
Continuous
 62
     7
370
    15
100
AcDbCircle
 10
1081.2936179141
 20
516.1627766626
 30
0.0
 40
0.5000000000002274
  0
CIRCLE
  5
3D6
330
1F
100
AcDbEntity
  8
0
  6
Continuous
 62
     7
370
    15
100
AcDbCircle
 10
1152.2936179141
 20
516.1627766626
 30
0.0
 40
0.4999999999997726
  0
CIRCLE
  5
3D7
330
1F
100
AcDbEntity
  8
0
  6
Continuous
 62
     7
370
    15
100
AcDbCircle
 10
1152.2936179141
 20
465.1627766626
 30
0.0
 40
0.4999999999997726
  0
CIRCLE
  5
3D8
330
1F
100
AcDbEntity
  8
0
  6
Continuous
 62
     7
370
    15
100
AcDbCircle
 10
1081.2936179141
 20
465.1627766626
 30
0.0
 40
0.5000000000002274
  0
MTEXT
  5
3D9
330
1F
100
AcDbEntity
  8
SLD-0
100
AcDbMText
 10
1086.4001047141
 20
491.3303293161
 30
0.0
 40
4.0
 41
0.0
 71
     1
 72
     1
  1
\LTrappe servo d'aileron
  7
SLDTEXTSTYLE0
 73
     1
 44
1.0
  0
INSERT
  5
3DF
330
1F
100
AcDbEntity
  8
SLD-0
100
AcDbBlockReference
  2
SW_NOTE_34
 10
1159.7603024126
 20
538.8332901521
 30
0.0
  0
LEADER
  5
3E0
330
1F
100
AcDbEntity
  8
SLD-0
100
AcDbLeader
  3
SLDDIMSTYLE0
 76
     2
 10
1157.2394450037
 20
520.2236745959
 30
0.0
 10
1159.7603024126
 20
538.8332901521
 30
0.0
  0
INSERT
  5
3E5
330
1F
100
AcDbEntity
  8
SLD-0
100
AcDbBlockReference
  2
SW_NOTE_35
 10
1157.7941176471
 20
536.7058823529
 30
0.0
  0
LEADER
  5
3E6
330
1F
100
AcDbEntity
  8
SLD-0
100
AcDbLeader
  3
SLDDIMSTYLE0
 76
     2
 10
1157.3548353207
 20
520.3080333242
 30
0.0
 10
1157.7941176471
 20
536.7058823529
 30
0.0
  0
CIRCLE
  5
3E7
330
1F
100
AcDbEntity
  8
0
  6
Continuous
 62
     7
370
    15
100
AcDbCircle
 10
263.018275159
 20
39.4805966442
 30
0.0
 40
0.9999999999994316
  0
LINE
  5
3E8
330
1F
100
AcDbEntity
  8
0
  6
Continuous
 62
     7
370
    15
100
AcDbLine
 10
266.9268982772
 20
38.6282305211
 30
0.0
 11
270.2199356917
 21
53.7310938328
 31
0.0
  0
ARC
  5
3E9
330
1F
100
AcDbEntity
  8
0
  6
Continuous
 62
     7
370
    15
100
AcDbCircle
 10
263.018275159
 20
39.4805966442
 30
0.0
 40
4.000000000000624
100
AcDbArc
 50
218.0449431097
 51
347.6987170466
  0
LINE
  5
3EA
330
1F
100
AcDbEntity
  8
0
  6
Continuous
 62
     7
370
    15
100
AcDbLine
 10
244.4211380843
 20
56.7542414158
 30
0.0
 11
259.8678009872
 21
37.015567252
 31
0.0
  0
LINE
  5
3EB
330
1F
100
AcDbEntity
  8
0
  6
Continuous
 62
     7
370
    15
100
AcDbLine
 10
246.3590042953
 20
73.3505587071
 30
0.0
 11
244.4211380843
 21
56.7542414158
 31
0.0
  0
LINE
  5
3EC
330
1F
100
AcDbEntity
  8
0
  6
Continuous
 62
     7
370
    15
100
AcDbLine
 10
266.9049637679
 20
76.8619875401
 30
0.0
 11
246.3590042953
 21
73.3505587071
 31
0.0
  0
LINE
  5
3ED
330
1F
100
AcDbEntity
  8
0
  6
Continuous
 62
     7
370
    15
100
AcDbLine
 10
264.2871277694
 20
54.4353823155
 30
0.0
 11
266.9049637679
 21
76.8619875401
 31
0.0
  0
LINE
  5
3EE
330
1F
100
AcDbEntity
  8
0
  6
Continuous
 62
     7
370
    15
100
AcDbLine
 10
270.2199356917
 20
53.7310938328
 30
0.0
 11
264.2871277694
 21
54.4353823155
 31
0.0
  0
INSERT
  5
3F4
330
1F
100
AcDbEntity
  8
SLD-0
100
AcDbBlockReference
  2
SW_NOTE_36
 10
262.1351189078
 20
91.4470598631
 30
0.0
  0
LEADER
  5
3F5
330
1F
100
AcDbEntity
  8
SLD-0
100
AcDbLeader
  3
SLDDIMSTYLE0
 76
     2
 10
257.5458044932
 20
70.8125265373
 30
0.0
 10
262.1351189078
 20
91.4470598631
 30
0.0
  0
INSERT
  5
3FA
330
1F
100
AcDbEntity
  8
SLD-0
100
AcDbBlockReference
  2
SW_NOTE_37
 10
244.3235294118
 20
116.2352941176
 30
0.0
  0
LEADER
  5
3FB
330
1F
100
AcDbEntity
  8
SLD-0
100
AcDbLeader
  3
SLDDIMSTYLE0
 76
     2
 10
257.5439617342
 20
70.9084420355
 30
0.0
 10
244.3235294118
 20
116.2352941176
 30
0.0
  0
CIRCLE
  5
3FC
330
1F
100
AcDbEntity
  8
0
  6
Continuous
 62
     7
370
    15
100
AcDbCircle
 10
985.5966016405
 20
647.5432222831
 30
0.0
 40
1.0
  0
CIRCLE
  5
3FD
330
1F
100
AcDbEntity
  8
0
  6
Continuous
 62
     7
370
    15
100
AcDbCircle
 10
933.5966016405
 20
647.5432222831
 30
0.0
 40
1.0
  0
LINE
  5
3FE
330
1F
100
AcDbEntity
  8
0
  6
Continuous
 62
     7
370
    15
100
AcDbLine
 10
937.5966017597
 20
643.5432216125
 30
0.0
 11
937.5966017597
 21
665.543223356
 31
0.0
  0
LINE
  5
3FF
330
1F
100
AcDbEntity
  8
0
  6
Continuous
 62
     7
370
    15
100
AcDbLine
 10
981.5966015213
 20
643.5432216125
 30
0.0
 11
937.5966017597
 21
643.5432216125
 31
0.0
  0
LINE
  5
400
330
1F
100
AcDbEntity
  8
0
  6
Continuous
 62
     7
370
    15
100
AcDbLine
 10
981.5966015213
 20
665.543223356
 30
0.0
 11
981.5966015213
 21
643.5432216125
 31
0.0
  0
LINE
  5
401
330
1F
100
AcDbEntity
  8
0
  6
Continuous
 62
     7
370
    15
100
AcDbLine
 10
994.5966017895
 20
665.543223356
 30
0.0
 11
981.5966015213
 21
665.543223356
 31
0.0
  0
LINE
  5
402
330
1F
100
AcDbEntity
  8
0
  6
Continuous
 62
     7
370
    15
100
AcDbLine
 10
994.5966017895
 20
645.543223803
 30
0.0
 11
994.5966017895
 21
665.543223356
 31
0.0
  0
LINE
  5
403
330
1F
100
AcDbEntity
  8
0
  6
Continuous
 62
     7
370
    15
100
AcDbLine
 10
992.5966014616
 20
645.543223803
 30
0.0
 11
994.5966017895
 21
645.543223803
 31
0.0
  0
LINE
  5
404
330
1F
100
AcDbEntity
  8
0
  6
Continuous
 62
     7
370
    15
100
AcDbLine
 10
992.5966014616
 20
615.5432223781
 30
0.0
 11
992.5966014616
 21
645.543223803
 31
0.0
  0
LINE
  5
405
330
1F
100
AcDbEntity
  8
0
  6
Continuous
 62
     7
370
    15
100
AcDbLine
 10
974.5966013052
 20
615.5432223781
 30
0.0
 11
992.5966014616
 21
615.5432223781
 31
0.0
  0
LINE
  5
406
330
1F
100
AcDbEntity
  8
0
  6
Continuous
 62
     7
370
    15
100
AcDbLine
 10
974.5966013052
 20
613.5432222831
 30
0.0
 11
974.5966013052
 21
615.5432223781
 31
0.0
  0
LINE
  5
407
330
1F
100
AcDbEntity
  8
0
  6
Continuous
 62
     7
370
    15
100
AcDbLine
 10
944.5966019757
 20
613.5432222831
 30
0.0
 11
974.5966013052
 21
613.5432222831
 31
0.0
  0
LINE
  5
408
330
1F
100
AcDbEntity
  8
0
  6
Continuous
 62
     7
370
    15
100
AcDbLine
 10
944.5966019757
 20
615.5432223781
 30
0.0
 11
944.5966019757
 21
613.5432222831
 31
0.0
  0
LINE
  5
409
330
1F
100
AcDbEntity
  8
0
  6
Continuous
 62
     7
370
    15
100
AcDbLine
 10
926.5966018193
 20
615.5432223781
 30
0.0
 11
944.5966019757
 21
615.5432223781
 31
0.0
  0
LINE
  5
40A
330
1F
100
AcDbEntity
  8
0
  6
Continuous
 62
     7
370
    15
100
AcDbLine
 10
926.5966018193
 20
645.543223803
 30
0.0
 11
926.5966018193
 21
615.5432223781
 31
0.0
  0
LINE
  5
40B
330
1F
100
AcDbEntity
  8
0
  6
Continuous
 62
     7
370
    15
100
AcDbLine
 10
924.5966014915
 20
645.543223803
 30
0.0
 11
926.5966018193
 21
645.543223803
 31
0.0
  0
LINE
  5
40C
330
1F
100
AcDbEntity
  8
0
  6
Continuous
 62
     7
370
    15
100
AcDbLine
 10
924.5966014915
 20
665.543223356
 30
0.0
 11
924.5966014915
 21
645.543223803
 31
0.0
  0
LINE
  5
40D
330
1F
100
AcDbEntity
  8
0
  6
Continuous
 62
     7
370
    15
100
AcDbLine
 10
937.5966017597
 20
665.543223356
 30
0.0
 11
924.5966014915
 21
665.543223356
 31
0.0
  0
CIRCLE
  5
40E
330
1F
100
AcDbEntity
  8
0
  6
Continuous
 62
     7
370
    15
100
AcDbCircle
 10
933.5966016405
 20
661.5432222831
 30
0.0
 40
1.0
  0
CIRCLE
  5
40F
330
1F
100
AcDbEntity
  8
0
  6
Continuous
 62
     7
370
    15
100
AcDbCircle
 10
985.5966016405
 20
661.5432222831
 30
0.0
 40
1.0
  0
ARC
  5
410
330
1F
100
AcDbEntity
  8
0
  6
Continuous
 62
     7
370
    15
100
AcDbCircle
 10
942.5966016405
 20
628.5432222831
 30
0.0
 40
5.0
100
AcDbArc
 50
180.0
 51
270.0
  0
LINE
  5
411
330
1F
100
AcDbEntity
  8
0
  6
Continuous
 62
     7
370
    15
100
AcDbLine
 10
942.5966007166
 20
623.5432220596
 30
0.0
 11
976.5966025643
 21
623.5432220596
 31
0.0
  0
ARC
  5
412
330
1F
100
AcDbEntity
  8
0
  6
Continuous
 62
     7
370
    15
100
AcDbCircle
 10
976.5966016405
 20
628.5432222831
 30
0.0
 40
5.0
100
AcDbArc
 50
270.0
 51
0.0
  0
LINE
  5
413
330
1F
100
AcDbEntity
  8
0
  6
Continuous
 62
     7
370
    15
100
AcDbLine
 10
981.5966015213
 20
628.5432219478
 30
0.0
 11
981.5966015213
 21
630.543223207
 31
0.0
  0
ARC
  5
414
330
1F
100
AcDbEntity
  8
0
  6
Continuous
 62
     7
370
    15
100
AcDbCircle
 10
976.5966016405
 20
630.5432222831
 30
0.0
 40
5.0
100
AcDbArc
 50
0.0
 51
90.0
  0
LINE
  5
415
330
1F
100
AcDbEntity
  8
0
  6
Continuous
 62
     7
370
    15
100
AcDbLine
 10
976.5966025643
 20
635.5432221639
 30
0.0
 11
942.5966007166
 21
635.5432221639
 31
0.0
  0
ARC
  5
416
330
1F
100
AcDbEntity
  8
0
  6
Continuous
 62
     7
370
    15
100
AcDbCircle
 10
942.5966016405
 20
630.5432222831
 30
0.0
 40
5.0
100
AcDbArc
 50
90.0
 51
180.0
  0
LINE
  5
417
330
1F
100
AcDbEntity
  8
0
  6
Continuous
 62
     7
370
    15
100
AcDbLine
 10
937.5966017597
 20
630.543223207
 30
0.0
 11
937.5966017597
 21
628.5432219478
 31
0.0
  0
INSERT
  5
41D
330
1F
100
AcDbEntity
  8
SLD-0
100
AcDbBlockReference
  2
SW_NOTE_38
 10
1001.6769655042
 20
629.3997255292
 30
0.0
  0
LEADER
  5
41E
330
1F
100
AcDbEntity
  8
SLD-0
100
AcDbLeader
  3
SLDDIMSTYLE0
 76
     2
 10
986.1250075342
 20
624.7257060505
 30
0.0
 10
1001.6769655042
 20
629.3997255292
 30
0.0
  0
INSERT
  5
423
330
1F
100
AcDbEntity
  8
SLD-0
100
AcDbBlockReference
  2
SW_NOTE_39
 10
1001.5
 20
618.0
 30
0.0
  0
LEADER
  5
424
330
1F
100
AcDbEntity
  8
SLD-0
100
AcDbLeader
  3
SLDDIMSTYLE0
 76
     2
 10
986.1431619019
 20
624.8035746677
 30
0.0
 10
1001.5
 20
618.0
 30
0.0
  0
LINE
  5
425
330
1F
100
AcDbEntity
  8
0
  6
Continuous
 62
     7
370
    15
100
AcDbLine
 10
971.8747285499
 20
547.5153530124
 30
0.0
 11
971.8747285499
 21
545.5153529174
 31
0.0
  0
LINE
  5
426
330
1F
100
AcDbEntity
  8
0
  6
Continuous
 62
     7
370
    15
100
AcDbLine
 10
971.8747285499
 20
545.5153529174
 30
0.0
 11
951.8747280656
 21
545.5153529174
 31
0.0
  0
LINE
  5
427
330
1F
100
AcDbEntity
  8
0
  6
Continuous
 62
     7
370
    15
100
AcDbLine
 10
951.8747280656
 20
545.5153529174
 30
0.0
 11
951.8747280656
 21
547.5153530124
 31
0.0
  0
LINE
  5
428
330
1F
100
AcDbEntity
  8
0
  6
Continuous
 62
     7
370
    15
100
AcDbLine
 10
956.8747288852
 20
597.5153537574
 30
0.0
 11
961.8747287734
 21
597.5153537574
 31
0.0
  0
LINE
  5
429
330
1F
100
AcDbEntity
  8
0
  6
Continuous
 62
     7
370
    15
100
AcDbLine
 10
961.8747287734
 20
597.5153537574
 30
0.0
 11
961.8747287734
 21
577.5153523418
 31
0.0
  0
LINE
  5
42A
330
1F
100
AcDbEntity
  8
0
  6
Continuous
 62
     7
370
    15
100
AcDbLine
 10
961.8747287734
 20
577.5153523418
 30
0.0
 11
963.8747281699
 21
577.5153523418
 31
0.0
  0
LINE
  5
42B
330
1F
100
AcDbEntity
  8
0
  6
Continuous
 62
     7
370
    15
100
AcDbLine
 10
963.8747281699
 20
577.5153523418
 30
0.0
 11
963.8747281699
 21
597.5153537574
 31
0.0
  0
LINE
  5
42C
330
1F
100
AcDbEntity
  8
0
  6
Continuous
 62
     7
370
    15
100
AcDbLine
 10
963.8747281699
 20
597.5153537574
 30
0.0
 11
968.8747280581
 21
597.5153537574
 31
0.0
  0
LINE
  5
42D
330
1F
100
AcDbEntity
  8
0
  6
Continuous
 62
     7
370
    15
100
AcDbLine
 10
968.8747280581
 20
597.5153537574
 30
0.0
 11
976.8747284381
 21
562.5153526771
 31
0.0
  0
LINE
  5
42E
330
1F
100
AcDbEntity
  8
0
  6
Continuous
 62
     7
370
    15
100
AcDbLine
 10
976.8747284381
 20
562.5153526771
 30
0.0
 11
976.8747284381
 21
547.5153530124
 31
0.0
  0
LINE
  5
42F
330
1F
100
AcDbEntity
  8
0
  6
Continuous
 62
     7
370
    15
100
AcDbLine
 10
976.8747284381
 20
547.5153530124
 30
0.0
 11
971.8747285499
 21
547.5153530124
 31
0.0
  0
LINE
  5
430
330
1F
100
AcDbEntity
  8
0
  6
Continuous
 62
     7
370
    15
100
AcDbLine
 10
946.8747291087
 20
562.5153526771
 30
0.0
 11
956.8747288852
 21
597.5153537574
 31
0.0
  0
LINE
  5
431
330
1F
100
AcDbEntity
  8
0
  6
Continuous
 62
     7
370
    15
100
AcDbLine
 10
946.8747291087
 20
547.5153530124
 30
0.0
 11
946.8747291087
 21
562.5153526771
 31
0.0
  0
LINE
  5
432
330
1F
100
AcDbEntity
  8
0
  6
Continuous
 62
     7
370
    15
100
AcDbLine
 10
951.8747280656
 20
547.5153530124
 30
0.0
 11
946.8747291087
 21
547.5153530124
 31
0.0
  0
MTEXT
  5
433
330
1F
100
AcDbEntity
  8
SLD-0
100
AcDbMText
 10
932.5337600862
 20
491.9903488171
 30
0.0
 40
4.0
 41
0.0
 71
     1
 72
     1
  1
\LTrappe servo de volets
  7
SLDTEXTSTYLE0
 73
     1
 44
1.0
  0
INSERT
  5
439
330
1F
100
AcDbEntity
  8
SLD-0
100
AcDbBlockReference
  2
SW_NOTE_40
 10
981.5945312564
 20
575.1695157559
 30
0.0
  0
LEADER
  5
43A
330
1F
100
AcDbEntity
  8
SLD-0
100
AcDbLeader
  3
SLDDIMSTYLE0
 76
     2
 10
968.5832834397
 20
570.5287304058
 30
0.0
 10
981.5945312564
 20
575.1695157559
 30
0.0
  0
INSERT
  5
43F
330
1F
100
AcDbEntity
  8
SLD-0
100
AcDbBlockReference
  2
SW_NOTE_41
 10
982.2058823529
 20
564.3529411765
 30
0.0
  0
LEADER
  5
440
330
1F
100
AcDbEntity
  8
SLD-0
100
AcDbLeader
  3
SLDDIMSTYLE0
 76
     2
 10
968.5448999756
 20
570.6233261299
 30
0.0
 10
982.2058823529
 20
564.3529411765
 30
0.0
  0
LINE
  5
441
330
1F
100
AcDbEntity
  8
0
  6
Continuous
 62
     7
370
    15
100
AcDbLine
 10
922.4031650812
 20
697.5319269297
 30
0.0
 11
924.403165409
 21
697.5319269297
 31
0.0
  0
LINE
  5
442
330
1F
100
AcDbEntity
  8
0
  6
Continuous
 62
     7
370
    15
100
AcDbLine
 10
924.403165409
 20
697.5319269297
 30
0.0
 11
924.403165409
 21
717.5319264827
 31
0.0
  0
LINE
  5
443
330
1F
100
AcDbEntity
  8
0
  6
Continuous
 62
     7
370
    15
100
AcDbLine
 10
924.403165409
 20
717.5319264827
 30
0.0
 11
922.4031650812
 21
717.5319264827
 31
0.0
  0
LINE
  5
444
330
1F
100
AcDbEntity
  8
0
  6
Continuous
 62
     7
370
    15
100
AcDbLine
 10
922.4031650812
 20
717.5319264827
 30
0.0
 11
922.4031650812
 21
697.5319269297
 31
0.0
  0
LINE
  5
445
330
1F
100
AcDbEntity
  8
0
  6
Continuous
 62
     7
370
    15
100
AcDbLine
 10
942.4031655655
 20
705.5319264948
 30
0.0
 11
972.4031648949
 21
705.5319264948
 31
0.0
  0
LINE
  5
446
330
1F
100
AcDbEntity
  8
0
  6
Continuous
 62
     7
370
    15
100
AcDbLine
 10
972.4031648949
 20
705.5319264948
 30
0.0
 11
972.4031648949
 21
707.5319265898
 31
0.0
  0
LINE
  5
447
330
1F
100
AcDbEntity
  8
0
  6
Continuous
 62
     7
370
    15
100
AcDbLine
 10
972.4031648949
 20
707.5319265898
 30
0.0
 11
942.4031655655
 21
707.5319265898
 31
0.0
  0
LINE
  5
448
330
1F
100
AcDbEntity
  8
0
  6
Continuous
 62
     7
370
    15
100
AcDbLine
 10
942.4031655655
 20
707.5319265898
 30
0.0
 11
942.4031655655
 21
705.5319264948
 31
0.0
  0
LINE
  5
449
330
1F
100
AcDbEntity
  8
0
  6
Continuous
 62
     7
370
    15
100
AcDbLine
 10
997.9031653494
 20
732.5319270788
 30
0.0
 11
916.903165111
 21
732.5319270788
 31
0.0
  0
LINE
  5
44A
330
1F
100
AcDbEntity
  8
0
  6
Continuous
 62
     7
370
    15
100
AcDbLine
 10
997.9031653494
 20
680.5319260059
 30
0.0
 11
997.9031653494
 21
732.5319270788
 31
0.0
  0
LINE
  5
44B
330
1F
100
AcDbEntity
  8
0
  6
Continuous
 62
     7
370
    15
100
AcDbLine
 10
916.903165111
 20
680.5319260059
 30
0.0
 11
997.9031653494
 21
680.5319260059
 31
0.0
  0
LINE
  5
44C
330
1F
100
AcDbEntity
  8
0
  6
Continuous
 62
     7
370
    15
100
AcDbLine
 10
916.903165111
 20
732.5319270788
 30
0.0
 11
916.903165111
 21
680.5319260059
 31
0.0
  0
LINE
  5
44D
330
1F
100
AcDbEntity
  8
0
  6
Continuous
 62
     7
370
    15
100
AcDbLine
 10
990.4031650514
 20
697.5319269297
 30
0.0
 11
992.4031653792
 21
697.5319269297
 31
0.0
  0
LINE
  5
44E
330
1F
100
AcDbEntity
  8
0
  6
Continuous
 62
     7
370
    15
100
AcDbLine
 10
992.4031653792
 20
697.5319269297
 30
0.0
 11
992.4031653792
 21
717.5319264827
 31
0.0
  0
LINE
  5
44F
330
1F
100
AcDbEntity
  8
0
  6
Continuous
 62
     7
370
    15
100
AcDbLine
 10
992.4031653792
 20
717.5319264827
 30
0.0
 11
990.4031650514
 21
717.5319264827
 31
0.0
  0
LINE
  5
450
330
1F
100
AcDbEntity
  8
0
  6
Continuous
 62
     7
370
    15
100
AcDbLine
 10
990.4031650514
 20
717.5319264827
 30
0.0
 11
990.4031650514
 21
697.5319269297
 31
0.0
  0
CIRCLE
  5
451
330
1F
100
AcDbEntity
  8
0
  6
Continuous
 62
     7
370
    15
100
AcDbCircle
 10
922.4031652302
 20
728.0319265423
 30
0.0
 40
0.7500000000001137
  0
CIRCLE
  5
452
330
1F
100
AcDbEntity
  8
0
  6
Continuous
 62
     7
370
    15
100
AcDbCircle
 10
992.4031652302
 20
728.0319265423
 30
0.0
 40
0.75
  0
CIRCLE
  5
453
330
1F
100
AcDbEntity
  8
0
  6
Continuous
 62
     7
370
    15
100
AcDbCircle
 10
992.4031652302
 20
685.0319265423
 30
0.0
 40
0.75
  0
CIRCLE
  5
454
330
1F
100
AcDbEntity
  8
0
  6
Continuous
 62
     7
370
    15
100
AcDbCircle
 10
922.4031652302
 20
685.0319265423
 30
0.0
 40
0.7500000000001137
  0
INSERT
  5
45A
330
1F
100
AcDbEntity
  8
SLD-0
100
AcDbBlockReference
  2
SW_NOTE_42
 10
1005.8398970888
 20
695.6062107222
 30
0.0
  0
LEADER
  5
45B
330
1F
100
AcDbEntity
  8
SLD-0
100
AcDbLeader
  3
SLDDIMSTYLE0
 76
     2
 10
988.5694994981
 20
690.1158660835
 30
0.0
 10
1005.8398970888
 20
695.6062107222
 30
0.0
  0
INSERT
  5
460
330
1F
100
AcDbEntity
  8
SLD-0
100
AcDbBlockReference
  2
SW_NOTE_43
 10
1005.0294117647
 20
684.9411764706
 30
0.0
  0
LEADER
  5
461
330
1F
100
AcDbEntity
  8
SLD-0
100
AcDbLeader
  3
SLDDIMSTYLE0
 76
     2
 10
988.5728518038
 20
690.3149667154
 30
0.0
 10
1005.0294117647
 20
684.9411764706
 30
0.0
  0
LINE
  5
462
330
1F
100
AcDbEntity
  8
0
  6
Continuous
 62
     7
370
    15
100
AcDbLine
 10
965.5491026874
 20
750.8188425268
 30
0.0
 11
965.5315595059
 21
749.1550455326
 31
0.0
  0
LINE
  5
463
330
1F
100
AcDbEntity
  8
0
  6
Continuous
 62
     7
370
    15
100
AcDbLine
 10
965.5491026874
 20
750.8188425268
 30
0.0
 11
992.1855046859
 21
767.1993874097
 31
0.0
  0
LINE
  5
464
330
1F
100
AcDbEntity
  8
0
  6
Continuous
 62
     7
370
    15
100
AcDbLine
 10
992.1855046859
 20
767.1993874097
 30
0.0
 11
992.1186455923
 21
765.6643319988
 31
0.0
  0
LINE
  5
465
330
1F
100
AcDbEntity
  8
0
  6
Continuous
 62
     7
370
    15
100
AcDbLine
 10
965.5315595059
 20
749.1550455326
 30
0.0
 11
992.1186455923
 21
765.6643319988
 31
0.0
  0
LINE
  5
466
330
1F
100
AcDbEntity
  8
0
  6
Continuous
 62
     7
370
    15
100
AcDbLine
 10
926.2743360066
 20
773.6059678905
 30
0.0
 11
930.6804509999
 21
775.6601411536
 31
0.0
  0
LINE
  5
467
330
1F
100
AcDbEntity
  8
0
  6
Continuous
 62
     7
370
    15
100
AcDbLine
 10
941.5505527814
 20
771.9390842205
 30
0.0
 11
961.0113010895
 21
765.2772742513
 31
0.0
  0
LINE
  5
468
330
1F
100
AcDbEntity
  8
0
  6
Continuous
 62
     7
370
    15
100
AcDbLine
 10
992.1855046859
 20
767.1993874097
 30
0.0
 11
983.6565384195
 21
769.8906789924
 31
0.0
  0
LINE
  5
469
330
1F
100
AcDbEntity
  8
0
  6
Continuous
 62
     7
370
    15
100
AcDbLine
 10
965.9414888322
 20
775.4806136165
 30
0.0
 11
940.3703141554
 21
783.5495266614
 31
0.0
  0
LINE
  5
46A
330
1F
100
AcDbEntity
  8
0
  6
Continuous
 62
     7
370
    15
100
AcDbLine
 10
912.0807648422
 20
770.6771023185
 30
0.0
 11
965.5491026874
 21
750.8188425268
 31
0.0
  0
LINE
  5
46B
330
1F
100
AcDbEntity
  8
0
  6
Continuous
 62
     7
370
    15
100
AcDbLine
 10
940.3703141554
 20
783.5495266614
 30
0.0
 11
939.5742225918
 21
783.1872858809
 31
0.0
  0
LINE
  5
46C
330
1F
100
AcDbEntity
  8
0
  6
Continuous
 62
     7
370
    15
100
AcDbLine
 10
922.1667980889
 20
775.2664896732
 30
0.0
 11
912.0807648422
 21
770.6771023185
 31
0.0
  0
LINE
  5
46D
330
1F
100
AcDbEntity
  8
0
  6
Continuous
 62
     7
370
    15
100
AcDbLine
 10
970.8252442668
 20
757.9628958003
 30
0.0
 11
981.073237358
 21
764.1176260879
 31
0.0
  0
LWPOLYLINE
  5
46E
330
1F
100
AcDbEntity
  8
0
  6
Continuous
 62
     7
370
    15
100
AcDbPolyline
 90
       17
 70
   128
 43
0.0
 10
940.8426072577
 20
781.6515998399
 10
941.0200597565
 20
781.7078073626
 10
941.2363811474
 20
781.7343554019
 10
941.4587725368
 20
781.7272356648
 10
941.6535254868
 20
781.6875207258
 10
941.7910746142
 20
781.6212076717
 10
941.850444205
 20
781.5383321583
 10
941.8224672031
 20
781.4514772104
 10
941.7112472719
 20
781.3738775819
 10
941.5336347625
 20
781.3173953565
 10
941.3167032168
 20
781.2906902433
 10
941.0936141575
 20
781.2978608805
 10
940.8984802855
 20
781.337804519
 10
940.761093325
 20
781.4043915876
 10
940.7023307908
 20
781.4874244323
 10
940.7310085577
 20
781.5742282239
 10
940.8426072577
 20
781.6515998399
  0
LWPOLYLINE
  5
46F
330
1F
100
AcDbEntity
  8
0
  6
Continuous
 62
     7
370
    15
100
AcDbPolyline
 90
       17
 70
   128
 43
0.0
 10
985.6175962213
 20
767.3361056912
 10
985.7941110446
 20
767.4046756715
 10
986.0244764675
 20
767.4369512325
 10
986.2737648429
 20
767.4280662751
 10
986.5042142243
 20
767.3793571911
 10
986.6808634609
 20
767.2981728667
 10
986.7768003106
 20
767.1967919229
 10
986.777272058
 20
767.0906035462
 10
986.6820190784
 20
766.995787591
 10
986.5054124428
 20
766.9268477445
 10
986.2743661897
 20
766.894358334
 10
986.024200407
 20
766.9033127673
 10
985.793191524
 20
766.9523318302
 10
985.6166314548
 20
767.0338868679
 10
985.5213771908
 20
767.1354802882
 10
985.5217810904
 20
767.2416005637
 10
985.6175962213
 20
767.3361056912
  0
LWPOLYLINE
  5
470
330
1F
100
AcDbEntity
  8
0
  6
Continuous
 62
     7
370
    15
100
AcDbPolyline
 90
       17
 70
   128
 43
0.0
 10
963.4508319394
 20
754.0655397513
 10
963.6533100405
 20
754.1464444149
 10
963.9084591661
 20
754.1844244882
 10
964.1776128767
 20
754.1737586408
 10
964.4200191137
 20
754.1160515549
 10
964.5989027708
 20
754.0200005356
 10
964.6869981747
 20
753.9001270277
 10
964.6707092224
 20
753.7746208968
 10
964.5522963265
 20
753.6626070409
 10
964.3496485971
 20
753.5812286563
 10
964.093659309
 20
753.5429745273
 10
963.8234804548
 20
753.5537289356
 10
963.5804698588
 20
753.6118358337
 10
963.4017530937
 20
753.708361577
 10
963.3145016247
 20
753.8285087691
 10
963.331811942
 20
753.9539267125
 10
963.4508319394
 20
754.0655397513
  0
LWPOLYLINE
  5
471
330
1F
100
AcDbEntity
  8
0
  6
Continuous
 62
     7
370
    15
100
AcDbPolyline
 90
       17
 70
   128
 43
0.0
 10
917.5106006389
 20
770.8711869682
 10
917.711893441
 20
770.9364118651
 10
917.9495641691
 20
770.9671379939
 10
918.1875914851
 20
770.9587293885
 10
918.3899113001
 20
770.9124533562
 10
918.525805635
 20
770.8352914243
 10
918.5745375295
 20
770.7389177798
 10
918.5285288387
 20
770.6379604293
 10
918.3946061646
 20
770.547804073
 10
918.1930755893
 20
770.4822362539
 10
917.9546663119
 20
770.451313682
 10
917.7158376036
 20
770.4597854562
 10
917.5131234293
 20
770.5063492874
 10
917.3774690625
 20
770.5838533401
 10
917.329474607
 20
770.6804247375
 10
917.3762857966
 20
770.781317611
 10
917.5106006389
 20
770.8711869682
  0
LINE
  5
472
330
1F
100
AcDbEntity
  8
0
  6
Continuous
 62
     7
370
    15
100
AcDbLine
 10
912.0807648422
 20
770.6771023185
 30
0.0
 11
912.1649910698
 21
769.1763927536
 31
0.0
  0
LINE
  5
473
330
1F
100
AcDbEntity
  8
0
  6
Continuous
 62
     7
370
    15
100
AcDbLine
 10
912.1649910698
 20
769.1763927536
 30
0.0
 11
965.5315595059
 21
749.1550455326
 31
0.0
  0
LINE
  5
474
330
1F
100
AcDbEntity
  8
0
  6
Continuous
 62
     7
370
    15
100
AcDbLine
 10
922.9813562642
 20
783.6310084996
 30
0.0
 11
923.4565763009
 21
772.2923011664
 31
0.0
  0
LINE
  5
475
330
1F
100
AcDbEntity
  8
0
  6
Continuous
 62
     7
370
    15
100
AcDbLine
 10
926.5415865594
 20
812.983300489
 30
0.0
 11
922.9813562642
 21
783.6310084996
 31
0.0
  0
LINE
  5
476
330
1F
100
AcDbEntity
  8
0
  6
Continuous
 62
     7
370
    15
100
AcDbLine
 10
929.4231834077
 20
813.9679622599
 30
0.0
 11
926.5415865594
 21
812.983300489
 31
0.0
  0
LINE
  5
477
330
1F
100
AcDbEntity
  8
0
  6
Continuous
 62
     7
370
    15
100
AcDbLine
 10
929.9400938601
 20
798.2181622481
 30
0.0
 11
929.4231834077
 21
813.9679622599
 31
0.0
  0
LINE
  5
478
330
1F
100
AcDbEntity
  8
0
  6
Continuous
 62
     7
370
    15
100
AcDbLine
 10
933.370042991
 20
815.3166317482
 30
0.0
 11
930.5611269071
 21
814.3568055022
 31
0.0
  0
LINE
  5
479
330
1F
100
AcDbEntity
  8
0
  6
Continuous
 62
     7
370
    15
100
AcDbLine
 10
938.3506200306
 20
795.0196101295
 30
0.0
 11
937.7836277239
 21
797.3302384227
 31
0.0
  0
LINE
  5
47A
330
1F
100
AcDbEntity
  8
0
  6
Continuous
 62
     7
370
    15
100
AcDbLine
 10
933.8026355335
 20
813.5537136534
 30
0.0
 11
933.370042991
 21
815.3166317482
 31
0.0
  0
LINE
  5
47B
330
1F
100
AcDbEntity
  8
0
  6
Continuous
 62
     7
370
    15
100
AcDbLine
 10
939.6439727017
 20
779.964216478
 30
0.0
 11
939.4773484787
 21
787.6637441664
 31
0.0
  0
LINE
  5
47C
330
1F
100
AcDbEntity
  8
0
  6
Continuous
 62
     7
370
    15
100
AcDbLine
 10
923.4565763009
 20
772.2923011664
 30
0.0
 11
926.2743360066
 21
773.6059678905
 31
0.0
  0
LINE
  5
47D
330
1F
100
AcDbEntity
  8
0
  6
Continuous
 62
     7
370
    15
100
AcDbLine
 10
926.5415865594
 20
812.983300489
 30
0.0
 11
925.3143962804
 21
813.2945233207
 31
0.0
  0
LINE
  5
47E
330
1F
100
AcDbEntity
  8
0
  6
Continuous
 62
     7
370
    15
100
AcDbLine
 10
922.9813562642
 20
783.6310084996
 30
0.0
 11
921.7871611791
 21
784.0239241507
 31
0.0
  0
LINE
  5
47F
330
1F
100
AcDbEntity
  8
0
  6
Continuous
 62
     7
370
    15
100
AcDbLine
 10
925.3143962804
 20
813.2945233207
 30
0.0
 11
921.7871611791
 21
784.0239241507
 31
0.0
  0
LINE
  5
480
330
1F
100
AcDbEntity
  8
0
  6
Continuous
 62
     7
370
    15
100
AcDbLine
 10
929.4231834077
 20
813.9679622599
 30
0.0
 11
928.1985183451
 21
814.2733907639
 31
0.0
  0
LINE
  5
481
330
1F
100
AcDbEntity
  8
0
  6
Continuous
 62
     7
370
    15
100
AcDbLine
 10
928.1985183451
 20
814.2733907639
 30
0.0
 11
925.3143962804
 21
813.2945233207
 31
0.0
  0
LINE
  5
482
330
1F
100
AcDbEntity
  8
0
  6
Continuous
 62
     7
370
    15
100
AcDbLine
 10
933.370042991
 20
815.3166317482
 30
0.0
 11
932.1490960953
 21
815.614211941
 31
0.0
  0
LINE
  5
483
330
1F
100
AcDbEntity
  8
0
  6
Continuous
 62
     7
370
    15
100
AcDbLine
 10
930.5611269071
 20
814.3568055022
 30
0.0
 11
929.3375030821
 21
814.6599607677
 31
0.0
  0
LINE
  5
484
330
1F
100
AcDbEntity
  8
0
  6
Continuous
 62
     7
370
    15
100
AcDbLine
 10
932.1490960953
 20
815.614211941
 30
0.0
 11
929.3375030821
 21
814.6599607677
 31
0.0
  0
LINE
  5
485
330
1F
100
AcDbEntity
  8
0
  6
Continuous
 62
     7
370
    15
100
AcDbLine
 10
923.4565763009
 20
772.2923011664
 30
0.0
 11
922.2774889089
 21
772.713072568
 31
0.0
  0
LINE
  5
486
330
1F
100
AcDbEntity
  8
0
  6
Continuous
 62
     7
370
    15
100
AcDbLine
 10
921.7871611791
 20
784.0239241507
 30
0.0
 11
922.2774889089
 21
772.713072568
 31
0.0
  0
LINE
  5
487
330
1F
100
AcDbEntity
  8
0
  6
Continuous
 62
     7
370
    15
100
AcDbLine
 10
968.3061184461
 20
768.7181951165
 30
0.0
 11
968.1361293841
 21
756.3478696514
 31
0.0
  0
LINE
  5
488
330
1F
100
AcDbEntity
  8
0
  6
Continuous
 62
     7
370
    15
100
AcDbLine
 10
973.2195774359
 20
801.1454814129
 30
0.0
 11
968.3061184461
 21
768.7181951165
 31
0.0
  0
LINE
  5
489
330
1F
100
AcDbEntity
  8
0
  6
Continuous
 62
     7
370
    15
100
AcDbLine
 10
975.954784677
 20
802.3630934703
 30
0.0
 11
973.2195774359
 21
801.1454814129
 31
0.0
  0
LINE
  5
48A
330
1F
100
AcDbEntity
  8
0
  6
Continuous
 62
     7
370
    15
100
AcDbLine
 10
975.5691348388
 20
785.0920123554
 30
0.0
 11
975.954784677
 21
802.3630934703
 31
0.0
  0
LINE
  5
48B
330
1F
100
AcDbEntity
  8
0
  6
Continuous
 62
     7
370
    15
100
AcDbLine
 10
976.627044192
 20
785.6308966146
 30
0.0
 11
975.5691348388
 21
785.0920123554
 31
0.0
  0
LINE
  5
48C
330
1F
100
AcDbEntity
  8
0
  6
Continuous
 62
     7
370
    15
100
AcDbLine
 10
977.0333330344
 20
802.843222897
 30
0.0
 11
976.627044192
 21
785.6308966146
 31
0.0
  0
LINE
  5
48D
330
1F
100
AcDbEntity
  8
0
  6
Continuous
 62
     7
370
    15
100
AcDbLine
 10
979.6918031445
 20
804.0266744512
 30
0.0
 11
977.0333330344
 21
802.843222897
 31
0.0
  0
LINE
  5
48E
330
1F
100
AcDbEntity
  8
0
  6
Continuous
 62
     7
370
    15
100
AcDbLine
 10
983.9024088921
 20
777.3854371737
 30
0.0
 11
979.6918031445
 21
804.0266744512
 31
0.0
  0
LINE
  5
48F
330
1F
100
AcDbEntity
  8
0
  6
Continuous
 62
     7
370
    15
100
AcDbLine
 10
983.515263074
 20
765.5842556518
 30
0.0
 11
983.9024088921
 21
777.3854371737
 31
0.0
  0
LINE
  5
490
330
1F
100
AcDbEntity
  8
0
  6
Continuous
 62
     7
370
    15
100
AcDbLine
 10
981.073237358
 20
764.1176260879
 30
0.0
 11
983.515263074
 21
765.5842556518
 31
0.0
  0
LINE
  5
491
330
1F
100
AcDbEntity
  8
0
  6
Continuous
 62
     7
370
    15
100
AcDbLine
 10
968.1361293841
 20
756.3478696514
 30
0.0
 11
970.8252442668
 21
757.9628958003
 31
0.0
  0
LINE
  5
492
330
1F
100
AcDbEntity
  8
0
  6
Continuous
 62
     7
370
    15
100
AcDbLine
 10
973.2195774359
 20
801.1454814129
 30
0.0
 11
971.6935396748
 21
801.5324937624
 31
0.0
  0
LINE
  5
493
330
1F
100
AcDbEntity
  8
0
  6
Continuous
 62
     7
370
    15
100
AcDbLine
 10
968.3061184461
 20
768.7181951165
 30
0.0
 11
966.8273414588
 21
769.2047442827
 31
0.0
  0
LINE
  5
494
330
1F
100
AcDbEntity
  8
0
  6
Continuous
 62
     7
370
    15
100
AcDbLine
 10
971.6935396748
 20
801.5324937624
 30
0.0
 11
966.8273414588
 21
769.2047442827
 31
0.0
  0
LINE
  5
495
330
1F
100
AcDbEntity
  8
0
  6
Continuous
 62
     7
370
    15
100
AcDbLine
 10
975.954784677
 20
802.3630934703
 30
0.0
 11
974.4350823416
 21
802.7421035564
 31
0.0
  0
LINE
  5
496
330
1F
100
AcDbEntity
  8
0
  6
Continuous
 62
     7
370
    15
100
AcDbLine
 10
974.4350823416
 20
802.7421035564
 30
0.0
 11
971.6935396748
 21
801.5324937624
 31
0.0
  0
LINE
  5
497
330
1F
100
AcDbEntity
  8
0
  6
Continuous
 62
     7
370
    15
100
AcDbLine
 10
977.0333330344
 20
802.843222897
 30
0.0
 11
975.5161807793
 21
803.2191004218
 31
0.0
  0
LINE
  5
498
330
1F
100
AcDbEntity
  8
0
  6
Continuous
 62
     7
370
    15
100
AcDbLine
 10
979.6918031445
 20
804.0266744512
 30
0.0
 11
978.1810618221
 21
804.3948859561
 31
0.0
  0
LINE
  5
499
330
1F
100
AcDbEntity
  8
0
  6
Continuous
 62
     7
370
    15
100
AcDbLine
 10
978.1810618221
 20
804.3948859561
 30
0.0
 11
975.5161807793
 21
803.2191004218
 31
0.0
  0
LINE
  5
49A
330
1F
100
AcDbEntity
  8
0
  6
Continuous
 62
     7
370
    15
100
AcDbLine
 10
968.1361293841
 20
756.3478696514
 30
0.0
 11
966.6806079308
 21
756.8672898454
 31
0.0
  0
LINE
  5
49B
330
1F
100
AcDbEntity
  8
0
  6
Continuous
 62
     7
370
    15
100
AcDbLine
 10
966.8273414588
 20
769.2047442827
 30
0.0
 11
966.6806079308
 21
756.8672898454
 31
0.0
  0
LWPOLYLINE
  5
49C
330
1F
100
AcDbEntity
  8
0
  6
Continuous
 62
     7
370
    15
100
AcDbPolyline
 90
       17
 70
   128
 43
0.0
 10
969.7036794069
 20
788.4629920932
 10
969.6530827519
 20
788.8002341123
 10
969.499284764
 20
789.1176113591
 10
969.2658299367
 20
789.3665475047
 10
968.9884895108
 20
789.5090310663
 10
968.7096738813
 20
789.5234783456
 10
968.4718741668
 20
789.4079364407
 10
968.3111603286
 20
789.1802545114
 10
968.2517733128
 20
788.8752056259
 10
968.3025650551
 20
788.5391231154
 10
968.4557606293
 20
788.2229240951
 10
968.688167029
 20
787.9744919606
 10
968.9646304341
 20
787.8315420126
 10
969.2432495788
 20
787.8159324862
 10
969.4816530592
 20
787.9302957835
 10
969.6434139724
 20
788.1574740921
 10
969.7036794069
 20
788.4629920932
  0
LWPOLYLINE
  5
49D
330
1F
100
AcDbEntity
  8
0
  6
Continuous
 62
     7
370
    15
100
AcDbPolyline
 90
       17
 70
   128
 43
0.0
 10
934.783984586
 20
798.3771117603
 10
934.7287414181
 20
798.6904944605
 10
934.5876249747
 20
798.9829276253
 10
934.3822298065
 20
799.2096709402
 10
934.1440042085
 20
799.3361129985
 10
933.9093617578
 20
799.3431003613
 10
933.7140458714
 20
799.229783094
 10
933.5876828895
 20
799.0136320055
 10
933.5493302372
 20
798.72764492
 10
933.6046840171
 20
798.4152636992
 10
933.7452929348
 20
798.1238311124
 10
933.9498609702
 20
797.8974981041
 10
934.1874215768
 20
797.7706365062
 10
934.4219546451
 20
797.7626444233
 10
934.6177769077
 20
797.874961441
 10
934.7449681719
 20
798.0907019023
 10
934.783984586
 20
798.3771117603
  0
LINE
  5
49E
330
1F
100
AcDbEntity
  8
0
  6
Continuous
 62
     7
370
    15
100
AcDbLine
 10
936.7275830022
 20
794.7120613464
 30
0.0
 11
936.2929983094
 21
812.2546470426
 31
0.0
  0
LINE
  5
49F
330
1F
100
AcDbEntity
  8
0
  6
Continuous
 62
     7
370
    15
100
AcDbLine
 10
966.055894973
 20
786.1653490314
 30
0.0
 11
936.7275830022
 21
794.7120613464
 31
0.0
  0
LINE
  5
4A0
330
1F
100
AcDbEntity
  8
0
  6
Continuous
 62
     7
370
    15
100
AcDbLine
 10
966.255233676
 20
804.7821380253
 30
0.0
 11
966.055894973
 21
786.1653490314
 31
0.0
  0
LINE
  5
4A1
330
1F
100
AcDbEntity
  8
0
  6
Continuous
 62
     7
370
    15
100
AcDbLine
 10
975.954784677
 20
802.3630934703
 30
0.0
 11
966.255233676
 21
804.7821380253
 31
0.0
  0
LINE
  5
4A2
330
1F
100
AcDbEntity
  8
0
  6
Continuous
 62
     7
370
    15
100
AcDbLine
 10
961.0113010895
 20
765.2772742513
 30
0.0
 11
966.7572380393
 21
763.3103231635
 31
0.0
  0
LINE
  5
4A3
330
1F
100
AcDbEntity
  8
0
  6
Continuous
 62
     7
370
    15
100
AcDbLine
 10
930.6804509999
 20
775.6601411536
 30
0.0
 11
941.5505527814
 21
771.9390842205
 31
0.0
  0
LINE
  5
4A4
330
1F
100
AcDbEntity
  8
0
  6
Continuous
 62
     7
370
    15
100
AcDbLine
 10
929.9400938601
 20
798.2181622481
 30
0.0
 11
930.6804509999
 21
775.6601411536
 31
0.0
  0
LINE
  5
4A5
330
1F
100
AcDbEntity
  8
0
  6
Continuous
 62
     7
370
    15
100
AcDbLine
 10
936.2929983094
 20
812.2546470426
 30
0.0
 11
928.1985183451
 21
814.2733907639
 31
0.0
  0
LWPOLYLINE
  5
4A6
330
1F
100
AcDbEntity
  8
0
  6
Continuous
 62
     7
370
    15
100
AcDbPolyline
 90
       17
 70
   128
 43
0.0
 10
934.4837980814
 20
809.4960395548
 10
934.4277422748
 20
809.8163825121
 10
934.2847475136
 20
810.1124954943
 10
934.0766970393
 20
810.3390809482
 10
933.835448177
 20
810.4615504206
 10
933.5978784911
 20
810.4613638319
 10
933.4001775311
 20
810.3387730138
 10
933.2723317177
 20
810.1126691637
 10
933.2336197651
 20
809.8175547872
 10
933.2897885679
 20
809.4982613345
 10
933.4322623065
 20
809.2031712292
 10
933.6394639134
 20
808.9769897703
 10
933.8800307921
 20
808.8540592561
 10
934.1174885648
 20
808.8531990387
 10
934.3157095465
 20
808.9747612911
 10
934.4444052226
 20
809.2004668328
 10
934.4837980814
 20
809.4960395548
  0
LWPOLYLINE
  5
4A7
330
1F
100
AcDbEntity
  8
0
  6
Continuous
 62
     7
370
    15
100
AcDbPolyline
 90
       17
 70
   128
 43
0.0
 10
969.8839295253
 20
800.3919930847
 10
969.8326480841
 20
800.7373578073
 10
969.6766161832
 20
801.0590747213
 10
969.4397223667
 20
801.3079088505
 10
969.1582681437
 20
801.4458633893
 10
968.8752958212
 20
801.4520546983
 10
968.6339306441
 20
801.3257990078
 10
968.4707815602
 20
801.0865868064
 10
968.4104534568
 20
800.7709350279
 10
968.4619360475
 20
800.4267897846
 10
968.617347896
 20
800.1062802578
 10
968.8531624178
 20
799.8579422733
 10
969.1337134986
 20
799.7194701705
 10
969.4164833479
 20
799.7120629554
 10
969.6584698546
 20
799.8371044753
 10
969.822696948
 20
800.0758273134
 10
969.8839295253
 20
800.3919930847
  0
ARC
  5
4A8
330
1F
100
AcDbEntity
  8
0
  6
Continuous
 62
     7
370
    15
100
AcDbCircle
 10
942.3034483775
 20
783.2214212797
 30
0.0
 40
5.290070293480366
100
AcDbArc
 50
180.6417492512
 51
246.428698472
  0
LINE
  5
4A9
330
1F
100
AcDbEntity
  8
0
  6
Continuous
 62
     7
370
    15
100
AcDbLine
 10
940.1880022101
 20
778.3727378272
 30
0.0
 11
962.4130866618
 21
771.0816231378
 31
0.0
  0
ARC
  5
4AA
330
1F
100
AcDbEntity
  8
0
  6
Continuous
 62
     7
370
    15
100
AcDbCircle
 10
963.2703918228
 20
773.6147473715
 30
0.0
 40
2.674264482524655
100
AcDbArc
 50
251.3022341089
 51
6.9551220221
  0
LINE
  5
4AB
330
1F
100
AcDbEntity
  8
0
  6
Continuous
 62
     7
370
    15
100
AcDbLine
 10
965.9249772049
 20
773.9385790745
 30
0.0
 11
965.9422070711
 21
775.5477236024
 31
0.0
  0
ARC
  5
4AC
330
1F
100
AcDbEntity
  8
0
  6
Continuous
 62
     7
370
    15
100
AcDbCircle
 10
960.4957308593
 20
775.5994167558
 30
0.0
 40
5.44672151917695
100
AcDbArc
 50
359.4562152716
 51
68.69906203
  0
LINE
  5
4AD
330
1F
100
AcDbEntity
  8
0
  6
Continuous
 62
     7
370
    15
100
AcDbLine
 10
962.4743422285
 20
780.6740470238
 30
0.0
 11
939.9949790117
 21
787.5582324867
 31
0.0
  0
LWPOLYLINE
  5
4AE
330
1F
100
AcDbEntity
  8
0
  6
Continuous
 62
     7
370
    15
100
AcDbPolyline
 90
        9
 70
   128
 43
0.0
 10
936.9760210408
 20
784.6835314548
 10
937.0167701937
 20
785.4090326286
 10
937.1745798198
 20
786.0711196519
 10
937.4439276109
 20
786.6444848953
 10
937.8150673132
 20
787.1069380509
 10
938.2743132311
 20
787.4402715048
 10
938.804477064
 20
787.6310288402
 10
939.3854609647
 20
787.6711162451
 10
939.9949790117
 20
787.5582324867
  0
LINE
  5
4AF
330
1F
100
AcDbEntity
  8
0
  6
Continuous
 62
     7
370
    15
100
AcDbLine
 10
936.9760210408
 20
784.6835314548
 30
0.0
 11
937.0137099115
 21
783.1621703594
 31
0.0
  0
LINE
  5
4B0
330
1F
100
AcDbEntity
  8
0
  6
Continuous
 62
     7
370
    15
100
AcDbLine
 10
975.954784677
 20
802.3630934703
 30
0.0
 11
977.0333330344
 21
802.843222897
 31
0.0
  0
LINE
  5
4B1
330
1F
100
AcDbEntity
  8
0
  6
Continuous
 62
     7
370
    15
100
AcDbLine
 10
966.255233676
 20
804.7821380253
 30
0.0
 11
967.3493504141
 21
805.2424490827
 31
0.0
  0
LINE
  5
4B2
330
1F
100
AcDbEntity
  8
0
  6
Continuous
 62
     7
370
    15
100
AcDbLine
 10
977.0333330344
 20
802.843222897
 30
0.0
 11
967.3493504141
 21
805.2424490827
 31
0.0
  0
ARC
  5
4B3
330
1F
100
AcDbEntity
  8
0
  6
Continuous
 62
     7
370
    15
100
AcDbCircle
 10
970.6484051385
 20
801.2429293405
 30
0.0
 40
1.151602204587375
100
AcDbArc
 50
180.1133086544
 51
228.4048456108
  0
ARC
  5
4B4
330
1F
100
AcDbEntity
  8
0
  6
Continuous
 62
     7
370
    15
100
AcDbCircle
 10
970.4821074926
 20
789.3992638435
 30
0.0
 40
1.160079703361618
100
AcDbArc
 50
185.2921699611
 51
226.2138635864
  0
LINE
  5
4B5
330
1F
100
AcDbEntity
  8
0
  6
Continuous
 62
     7
370
    15
100
AcDbLine
 10
936.7275830022
 20
794.7120613464
 30
0.0
 11
937.8342529616
 21
795.16911987
 31
0.0
  0
LINE
  5
4B6
330
1F
100
AcDbEntity
  8
0
  6
Continuous
 62
     7
370
    15
100
AcDbLine
 10
966.0647807162
 20
786.9952164255
 30
0.0
 11
937.8342529616
 21
795.16911987
 31
0.0
  0
LINE
  5
4B7
330
1F
100
AcDbEntity
  8
0
  6
Continuous
 62
     7
370
    15
100
AcDbLine
 10
962.4130866618
 20
771.0816231378
 30
0.0
 11
963.4683056124
 21
771.6467401558
 31
0.0
  0
ARC
  5
4B8
330
1F
100
AcDbEntity
  8
0
  6
Continuous
 62
     7
370
    15
100
AcDbCircle
 10
964.3867205704
 20
774.2510852929
 30
0.0
 40
2.761539358452944
100
AcDbArc
 50
250.5749456314
 51
284.6758292638
  0
LINE
  5
4B9
330
1F
100
AcDbEntity
  8
0
  6
Continuous
 62
     7
370
    15
100
AcDbLine
 10
941.2699034889
 20
778.883299706
 30
0.0
 11
940.1880022101
 21
778.3727378272
 31
0.0
  0
LINE
  5
4BA
330
1F
100
AcDbEntity
  8
0
  6
Continuous
 62
     7
370
    15
100
AcDbLine
 10
941.2699034889
 20
778.883299706
 30
0.0
 11
963.4683056124
 21
771.6467401558
 31
0.0
  0
LINE
  5
4BB
330
1F
100
AcDbEntity
  8
0
  6
Continuous
 62
     7
370
    15
100
AcDbLine
 10
936.2929983094
 20
812.2546470426
 30
0.0
 11
937.4246044646
 21
812.6563651228
 31
0.0
  0
LINE
  5
4BC
330
1F
100
AcDbEntity
  8
0
  6
Continuous
 62
     7
370
    15
100
AcDbLine
 10
937.8342529616
 20
795.16911987
 30
0.0
 11
937.4246044646
 21
812.6563651228
 31
0.0
  0
LINE
  5
4BD
330
1F
100
AcDbEntity
  8
0
  6
Continuous
 62
     7
370
    15
100
AcDbLine
 10
928.1985183451
 20
814.2733907639
 30
0.0
 11
929.3375030821
 21
814.6599607677
 31
0.0
  0
LINE
  5
4BE
330
1F
100
AcDbEntity
  8
0
  6
Continuous
 62
     7
370
    15
100
AcDbLine
 10
937.4246044646
 20
812.6563651228
 30
0.0
 11
929.3375030821
 21
814.6599607677
 31
0.0
  0
LINE
  5
4BF
330
1F
100
AcDbEntity
  8
0
  6
Continuous
 62
     7
370
    15
100
AcDbLine
 10
938.0684640289
 20
785.1710205131
 30
0.0
 11
936.9760210408
 21
784.6835314548
 31
0.0
  0
ARC
  5
4C0
330
1F
100
AcDbEntity
  8
0
  6
Continuous
 62
     7
370
    15
100
AcDbCircle
 10
941.1826870977
 20
785.438738014
 30
0.0
 40
3.125709196822839
100
AcDbArc
 50
135.8237001584
 51
184.9134127893
  0
LINE
  5
4C1
330
1F
100
AcDbEntity
  8
0
  6
Continuous
 62
     7
370
    15
100
AcDbLine
 10
937.0137099115
 20
783.1621703594
 30
0.0
 11
938.1039964164
 21
783.6541991908
 31
0.0
  0
ARC
  5
4C2
330
1F
100
AcDbEntity
  8
0
  6
Continuous
 62
     7
370
    15
100
AcDbCircle
 10
943.3602716854
 20
783.7063181481
 30
0.0
 40
5.2565336571871
100
AcDbArc
 50
180.5681016061
 51
246.5673713053
  0
LINE
  5
4C3
330
1F
100
AcDbEntity
  8
0
  6
Continuous
 62
     7
370
    15
100
AcDbLine
 10
938.0684640289
 20
785.1710205131
 30
0.0
 11
938.1039964164
 21
783.6541991908
 31
0.0
  0
CIRCLE
  5
4C4
330
1F
100
AcDbEntity
  8
0
  6
Continuous
 62
     7
370
    15
100
AcDbCircle
 10
407.0042535322
 20
313.0681709707
 30
0.0
 40
3.499999999999829
  0
LINE
  5
4C5
330
1F
100
AcDbEntity
  8
0
  6
Continuous
 62
     7
370
    15
100
AcDbLine
 10
379.8604679866
 20
300.068139112
 30
0.0
 11
436.5018082423
 21
300.068139112
 31
0.0
  0
LINE
  5
4C6
330
1F
100
AcDbEntity
  8
0
  6
Continuous
 62
     7
370
    15
100
AcDbLine
 10
379.8604679866
 20
320.0681200386
 30
0.0
 11
379.8604679866
 21
300.068139112
 31
0.0
  0
LINE
  5
4C7
330
1F
100
AcDbEntity
  8
0
  6
Continuous
 62
     7
370
    15
100
AcDbLine
 10
384.8605824275
 20
320.0681200386
 30
0.0
 11
379.8604679866
 21
320.0681200386
 31
0.0
  0
LINE
  5
4C8
330
1F
100
AcDbEntity
  8
0
  6
Continuous
 62
     7
370
    15
100
AcDbLine
 10
384.8605824275
 20
325.0682344795
 30
0.0
 11
384.8605824275
 21
320.0681200386
 31
0.0
  0
LINE
  5
4C9
330
1F
100
AcDbEntity
  8
0
  6
Continuous
 62
     7
370
    15
100
AcDbLine
 10
389.8604584499
 20
325.0682344795
 30
0.0
 11
384.8605824275
 21
325.0682344795
 31
0.0
  0
LINE
  5
4CA
330
1F
100
AcDbEntity
  8
0
  6
Continuous
 62
     7
370
    15
100
AcDbLine
 10
389.8604584499
 20
330.0681105018
 30
0.0
 11
389.8604584499
 21
325.0682344795
 31
0.0
  0
LINE
  5
4CB
330
1F
100
AcDbEntity
  8
0
  6
Continuous
 62
     7
370
    15
100
AcDbLine
 10
426.5018177791
 20
330.0681105018
 30
0.0
 11
389.8604584499
 21
330.0681105018
 31
0.0
  0
LINE
  5
4CC
330
1F
100
AcDbEntity
  8
0
  6
Continuous
 62
     7
370
    15
100
AcDbLine
 10
426.5018177791
 20
325.0682344795
 30
0.0
 11
426.5018177791
 21
330.0681105018
 31
0.0
  0
LINE
  5
4CD
330
1F
100
AcDbEntity
  8
0
  6
Continuous
 62
     7
370
    15
100
AcDbLine
 10
431.50193222
 20
325.0682344795
 30
0.0
 11
426.5018177791
 21
325.0682344795
 31
0.0
  0
LINE
  5
4CE
330
1F
100
AcDbEntity
  8
0
  6
Continuous
 62
     7
370
    15
100
AcDbLine
 10
431.50193222
 20
320.0681200386
 30
0.0
 11
431.50193222
 21
325.0682344795
 31
0.0
  0
LINE
  5
4CF
330
1F
100
AcDbEntity
  8
0
  6
Continuous
 62
     7
370
    15
100
AcDbLine
 10
436.5018082423
 20
320.0681200386
 30
0.0
 11
431.50193222
 21
320.0681200386
 31
0.0
  0
LINE
  5
4D0
330
1F
100
AcDbEntity
  8
0
  6
Continuous
 62
     7
370
    15
100
AcDbLine
 10
436.5018082423
 20
300.068139112
 30
0.0
 11
436.5018082423
 21
320.0681200386
 31
0.0
  0
INSERT
  5
4D5
330
1F
100
AcDbEntity
  8
SLD-0
100
AcDbBlockReference
  2
SW_NOTE_44
 10
427.7352941176
 20
345.0588235294
 30
0.0
  0
LEADER
  5
4D6
330
1F
100
AcDbEntity
  8
SLD-0
100
AcDbLeader
  3
SLDDIMSTYLE0
 76
     2
 10
419.5991189097
 20
320.9845896567
 30
0.0
 10
427.7352941176
 20
345.0588235294
 30
0.0
  0
INSERT
  5
4DC
330
1F
100
AcDbEntity
  8
SLD-0
100
AcDbBlockReference
  2
SW_NOTE_45
 10
424.7799050124
 20
348.2103821077
 30
0.0
  0
LEADER
  5
4DD
330
1F
100
AcDbEntity
  8
SLD-0
100
AcDbLeader
  3
SLDDIMSTYLE0
 76
     2
 10
419.5991189097
 20
320.9845896567
 30
0.0
 10
424.7799050124
 20
348.2103821077
 30
0.0
  0
ENDSEC
  0
SECTION
  2
OBJECTS
  0
DICTIONARY
  5
C
330
0
100
AcDbDictionary
281
     1
  3
ACAD_GROUP
350
D
  3
ACAD_LAYOUT
350
1A
  3
ACAD_MLINESTYLE
350
17
  3
ACAD_PLOTSETTINGS
350
19
  3
ACAD_PLOTSTYLENAME
350
E
  0
DICTIONARY
  5
D
102
{ACAD_REACTORS
330
C
102
}
330
C
100
AcDbDictionary
281
     1
  0
DICTIONARY
  5
1A
102
{ACAD_REACTORS
330
C
102
}
330
C
100
AcDbDictionary
281
     1
  3
Layout1
350
1E
  3
Layout2
350
26
  3
Model
350
22
  0
DICTIONARY
  5
17
102
{ACAD_REACTORS
330
C
102
}
330
C
100
AcDbDictionary
281
     1
  3
Standard
350
18
  0
DICTIONARY
  5
19
102
{ACAD_REACTORS
330
C
102
}
330
C
100
AcDbDictionary
281
     1
  0
ACDBDICTIONARYWDFLT
  5
E
102
{ACAD_REACTORS
330
C
102
}
330
C
100
AcDbDictionary
281
     1
  3
Normal
350
F
100
AcDbDictionaryWithDefault
340
F
  0
LAYOUT
  5
1E
102
{ACAD_REACTORS
330
1A
102
}
330
1A
100
AcDbPlotSettings
  1

  2
none_device
  4

  6

 40
0.0
 41
0.0
 42
0.0
 43
0.0
 44
0.0
 45
0.0
 46
0.0
 47
0.0
 48
0.0
 49
0.0
140
0.0
141
0.0
142
1.0
143
1.0
 70
   688
 72
     0
 73
     0
 74
     5
  7

 75
    16
147
1.0
148
0.0
149
0.0
100
AcDbLayout
  1
Layout1
 70
     1
 71
     1
 10
0.0
 20
0.0
 11
420.0
 21
297.0
 12
0.0
 22
0.0
 32
0.0
 14
1.0000000000E+20
 24
1.0000000000E+20
 34
1.0000000000E+20
 15
-1.0000000000E+20
 25
-1.0000000000E+20
 35
-1.0000000000E+20
146
0.0
 13
0.0
 23
0.0
 33
0.0
 16
1.0
 26
0.0
 36
0.0
 17
0.0
 27
1.0
 37
0.0
 76
     0
330
1B
  0
LAYOUT
  5
26
102
{ACAD_REACTORS
330
1A
102
}
330
1A
100
AcDbPlotSettings
  1

  2
none_device
  4

  6

 40
0.0
 41
0.0
 42
0.0
 43
0.0
 44
0.0
 45
0.0
 46
0.0
 47
0.0
 48
0.0
 49
0.0
140
0.0
141
0.0
142
1.0
143
1.0
 70
   688
 72
     0
 73
     0
 74
     5
  7

 75
    16
147
1.0
148
0.0
149
0.0
100
AcDbLayout
  1
Layout2
 70
     1
 71
     2
 10
0.0
 20
0.0
 11
0.0
 21
0.0
 12
0.0
 22
0.0
 32
0.0
 14
0.0
 24
0.0
 34
0.0
 15
0.0
 25
0.0
 35
0.0
146
0.0
 13
0.0
 23
0.0
 33
0.0
 16
1.0
 26
0.0
 36
0.0
 17
0.0
 27
1.0
 37
0.0
 76
     0
330
23
  0
LAYOUT
  5
22
102
{ACAD_REACTORS
330
1A
102
}
330
1A
100
AcDbPlotSettings
  1

  2
none_device
  4

  6

 40
0.0
 41
0.0
 42
0.0
 43
0.0
 44
0.0
 45
0.0
 46
0.0
 47
0.0
 48
0.0
 49
0.0
140
0.0
141
0.0
142
1.0
143
1.0
 70
  1712
 72
     0
 73
     0
 74
     0
  7

 75
     0
147
1.0
148
0.0
149
0.0
100
AcDbLayout
  1
Model
 70
     1
 71
     0
 10
0.0
 20
0.0
 11
1189.0
 21
841.0
 12
0.0
 22
0.0
 32
0.0
 14
0.0
 24
0.0
 34
0.0
 15
1189.0
 25
841.0
 35
0.0
146
0.0
 13
0.0
 23
0.0
 33
0.0
 16
1.0
 26
0.0
 36
0.0
 17
0.0
 27
1.0
 37
0.0
 76
     0
330
1F
331
29
  0
MLINESTYLE
  5
18
102
{ACAD_REACTORS
330
17
102
}
330
17
100
AcDbMlineStyle
  2
Standard
 70
     0
  3

 62
   256
 51
90.0
 52
90.0
 71
     2
 49
0.5
 62
   256
  6
BYLAYER
 49
-0.5
 62
   256
  6
BYLAYER
  0
ACDBPLACEHOLDER
  5
F
102
{ACAD_REACTORS
330
E
102
}
330
E
  0
ENDSEC
  0
EOF
