  0
SECTION
  2
HEADER
  9
$ACADVER
  1
AC1015
  9
$ACADMAINTVER
 70
     6
  9
$DWGCODEPAGE
  3
ANSI_1252
  9
$INSBASE
 10
0.0
 20
0.0
 30
0.0
  9
$EXTMIN
 10
0.0
 20
0.0
 30
0.0
  9
$EXTMAX
 10
297.0
 20
420.0
 30
0.0
  9
$LIMMIN
 10
0.0
 20
0.0
  9
$LIMMAX
 10
297.0
 20
420.0
  9
$ORTHOMODE
 70
     0
  9
$REGENMODE
 70
     1
  9
$FILLMODE
 70
     1
  9
$QTEXTMODE
 70
     0
  9
$MIRRTEXT
 70
     1
  9
$LTSCALE
 40
1.0
  9
$ATTMODE
 70
     1
  9
$TEXTSIZE
 40
2.5
  9
$TRACEWID
 40
1.0
  9
$TEXTSTYLE
  7
Standard
  9
$CLAYER
  8
0
  9
$CELTYPE
  6
ByLayer
  9
$CECOLOR
 62
   256
  9
$CELTSCALE
 40
1.0
  9
$DISPSILH
 70
     0
  9
$DIMSCALE
 40
1.0
  9
$DIMASZ
 40
4.0
  9
$DIMEXO
 40
1.0
  9
$DIMDLI
 40
3.75
  9
$DIMRND
 40
0.0
  9
$DIMDLE
 40
0.0
  9
$DIMEXE
 40
1.0
  9
$DIMTP
 40
0.0
  9
$DIMTM
 40
0.0
  9
$DIMTXT
 40
2.5
  9
$DIMCEN
 40
2.5
  9
$DIMTSZ
 40
0.0
  9
$DIMTOL
 70
     0
  9
$DIMLIM
 70
     0
  9
$DIMTIH
 70
     1
  9
$DIMTOH
 70
     1
  9
$DIMSE1
 70
     0
  9
$DIMSE2
 70
     0
  9
$DIMTAD
 70
     1
  9
$DIMZIN
 70
     0
  9
$DIMBLK
  1

  9
$DIMASO
 70
     1
  9
$DIMSHO
 70
     1
  9
$DIMPOST
  1

  9
$DIMAPOST
  1

  9
$DIMALT
 70
     0
  9
$DIMALTD
 70
     3
  9
$DIMALTF
 40
0.0393700787
  9
$DIMLFAC
 40
2.0
  9
$DIMTOFL
 70
     1
  9
$DIMTVP
 40
0.0
  9
$DIMTIX
 70
     0
  9
$DIMSOXD
 70
     0
  9
$DIMSAH
 70
     0
  9
$DIMBLK1
  1

  9
$DIMBLK2
  1

  9
$DIMSTYLE
  2
ISO-25
  9
$DIMCLRD
 70
     0
  9
$DIMCLRE
 70
     0
  9
$DIMCLRT
 70
     0
  9
$DIMTFAC
 40
1.0
  9
$DIMGAP
 40
1.524
  9
$DIMJUST
 70
     0
  9
$DIMSD1
 70
     0
  9
$DIMSD2
 70
     0
  9
$DIMTOLJ
 70
     0
  9
$DIMTZIN
 70
     0
  9
$DIMALTZ
 70
     0
  9
$DIMALTTZ
 70
     0
  9
$DIMUPT
 70
     0
  9
$DIMDEC
 70
     2
  9
$DIMTDEC
 70
     2
  9
$DIMALTU
 70
     2
  9
$DIMALTTD
 70
     3
  9
$DIMTXSTY
  7
Standard
  9
$DIMAUNIT
 70
     0
  9
$DIMADEC
 70
     2
  9
$DIMALTRND
 40
0.0
  9
$DIMAZIN
 70
     0
  9
$DIMDSEP
 70
    44
  9
$DIMATFIT
 70
     3
  9
$DIMFRAC
 70
     0
  9
$DIMLDRBLK
  1

  9
$DIMLUNIT
 70
     2
  9
$DIMLWD
 70
    -2
  9
$DIMLWE
 70
    -2
  9
$DIMTMOVE
 70
     0
  9
$LUNITS
 70
     2
  9
$LUPREC
 70
     2
  9
$SKETCHINC
 40
1.0
  9
$FILLETRAD
 40
10.0
  9
$AUNITS
 70
     0
  9
$AUPREC
 70
     2
  9
$MENU
  1
.
  9
$ELEVATION
 40
0.0
  9
$PELEVATION
 40
0.0
  9
$THICKNESS
 40
0.0
  9
$LIMCHECK
 70
     0
  9
$CHAMFERA
 40
10.0
  9
$CHAMFERB
 40
10.0
  9
$CHAMFERC
 40
20.0
  9
$CHAMFERD
 40
0.0
  9
$SKPOLY
 70
     0
  9
$TDCREATE
 40
2456917.918126088
  9
$TDUCREATE
 40
2456917.834792755
  9
$TDUPDATE
 40
2456917.918126435
  9
$TDUUPDATE
 40
2456917.834793102
  9
$TDINDWG
 40
0.0000000116
  9
$TDUSRTIMER
 40
0.0000000116
  9
$USRTIMER
 70
     1
  9
$ANGBASE
 50
0.0
  9
$ANGDIR
 70
     0
  9
$PDMODE
 70
     0
  9
$PDSIZE
 40
-1.0
  9
$PLINEWID
 40
0.0
  9
$SPLFRAME
 70
     0
  9
$SPLINETYPE
 70
     6
  9
$SPLINESEGS
 70
     8
  9
$HANDSEED
  5
D1
  9
$SURFTAB1
 70
     6
  9
$SURFTAB2
 70
     6
  9
$SURFTYPE
 70
     6
  9
$SURFU
 70
     6
  9
$SURFV
 70
     6
  9
$UCSBASE
  2

  9
$UCSNAME
  2

  9
$UCSORG
 10
0.0
 20
0.0
 30
0.0
  9
$UCSXDIR
 10
1.0
 20
0.0
 30
0.0
  9
$UCSYDIR
 10
0.0
 20
1.0
 30
0.0
  9
$UCSORTHOREF
  2

  9
$UCSORTHOVIEW
 70
     0
  9
$UCSORGTOP
 10
0.0
 20
0.0
 30
0.0
  9
$UCSORGBOTTOM
 10
0.0
 20
0.0
 30
0.0
  9
$UCSORGLEFT
 10
0.0
 20
0.0
 30
0.0
  9
$UCSORGRIGHT
 10
0.0
 20
0.0
 30
0.0
  9
$UCSORGFRONT
 10
0.0
 20
0.0
 30
0.0
  9
$UCSORGBACK
 10
0.0
 20
0.0
 30
0.0
  9
$PUCSBASE
  2

  9
$PUCSNAME
  2

  9
$PUCSORG
 10
0.0
 20
0.0
 30
0.0
  9
$PUCSXDIR
 10
1.0
 20
0.0
 30
0.0
  9
$PUCSYDIR
 10
0.0
 20
1.0
 30
0.0
  9
$PUCSORTHOREF
  2

  9
$PUCSORTHOVIEW
 70
     0
  9
$PUCSORGTOP
 10
0.0
 20
0.0
 30
0.0
  9
$PUCSORGBOTTOM
 10
0.0
 20
0.0
 30
0.0
  9
$PUCSORGLEFT
 10
0.0
 20
0.0
 30
0.0
  9
$PUCSORGRIGHT
 10
0.0
 20
0.0
 30
0.0
  9
$PUCSORGFRONT
 10
0.0
 20
0.0
 30
0.0
  9
$PUCSORGBACK
 10
0.0
 20
0.0
 30
0.0
  9
$USERI1
 70
     0
  9
$USERI2
 70
     0
  9
$USERI3
 70
     0
  9
$USERI4
 70
     0
  9
$USERI5
 70
     0
  9
$USERR1
 40
0.0
  9
$USERR2
 40
0.0
  9
$USERR3
 40
0.0
  9
$USERR4
 40
0.0
  9
$USERR5
 40
0.0
  9
$WORLDVIEW
 70
     1
  9
$SHADEDGE
 70
     3
  9
$SHADEDIF
 70
    70
  9
$TILEMODE
 70
     1
  9
$MAXACTVP
 70
    64
  9
$PINSBASE
 10
0.0
 20
0.0
 30
0.0
  9
$PLIMCHECK
 70
     0
  9
$PEXTMIN
 10
1.0000000000E+20
 20
1.0000000000E+20
 30
1.0000000000E+20
  9
$PEXTMAX
 10
-1.0000000000E+20
 20
-1.0000000000E+20
 30
-1.0000000000E+20
  9
$PLIMMIN
 10
0.0
 20
0.0
  9
$PLIMMAX
 10
420.0
 20
297.0
  9
$UNITMODE
 70
     0
  9
$VISRETAIN
 70
     1
  9
$PLINEGEN
 70
     0
  9
$PSLTSCALE
 70
     1
  9
$TREEDEPTH
 70
  3020
  9
$CMLSTYLE
  2
Standard
  9
$CMLJUST
 70
     0
  9
$CMLSCALE
 40
20.0
  9
$PROXYGRAPHICS
 70
     1
  9
$MEASUREMENT
 70
     1
  9
$CELWEIGHT
370
    -1
  9
$ENDCAPS
280
     0
  9
$JOINSTYLE
280
     0
  9
$LWDISPLAY
290
     1
  9
$INSUNITS
 70
     4
  9
$HYPERLINKBASE
  1

  9
$STYLESHEET
  1

  9
$XEDIT
290
     1
  9
$CEPSNTYPE
380
     0
  9
$PSTYLEMODE
290
     1
  9
$FINGERPRINTGUID
  2
{FF99D8F2-03A4-48F7-AB99-D8A3DA9F259C}
  9
$VERSIONGUID
  2
{FAEB1C32-E019-11D5-929B-00C0DF256EC4}
  9
$EXTNAMES
290
     1
  9
$PSVPSCALE
 40
0.0
  9
$OLESTARTUP
290
     0
  0
ENDSEC
  0
SECTION
  2
CLASSES
  0
CLASS
  1
ACDBDICTIONARYWDFLT
  2
AcDbDictionaryWithDefault
  3
ObjectDBX Classes
 90
        0
280
     0
281
     0
  0
CLASS
  1
VISUALSTYLE
  2
AcDbVisualStyle
  3
ObjectDBX Classes
 90
     4095
280
     0
281
     0
  0
CLASS
  1
MATERIAL
  2
AcDbMaterial
  3
ObjectDBX Classes
 90
     1153
280
     0
281
     0
  0
CLASS
  1
ACDBPLACEHOLDER
  2
AcDbPlaceHolder
  3
ObjectDBX Classes
 90
        0
280
     0
281
     0
  0
CLASS
  1
LAYOUT
  2
AcDbLayout
  3
ObjectDBX Classes
 90
        0
280
     0
281
     0
  0
ENDSEC
  0
SECTION
  2
TABLES
  0
TABLE
  2
VPORT
  5
8
330
0
100
AcDbSymbolTable
 70
     1
  0
VPORT
  5
29
330
8
100
AcDbSymbolTableRecord
100
AcDbViewportTableRecord
  2
*Active
 70
     0
 10
0.0
 20
0.0
 11
1.0
 21
1.0
 12
148.5
 22
210.0
 13
0.0
 23
0.0
 14
10.0
 24
10.0
 15
10.0
 25
10.0
 16
0.0
 26
0.0
 36
1.0
 17
0.0
 27
0.0
 37
0.0
 40
420.0
 41
0.7071428571
 42
50.0
 43
0.0
 44
0.0
 50
0.0
 51
0.0
 71
     0
 72
  2000
 73
     1
 74
     3
 75
     0
 76
     0
 77
     0
 78
     0
281
     0
 65
     1
110
0.0
120
0.0
130
0.0
111
1.0
121
0.0
131
0.0
112
0.0
122
1.0
132
0.0
 79
     0
146
0.0
  0
ENDTAB
  0
TABLE
  2
LTYPE
  5
5
330
0
100
AcDbSymbolTable
 70
     6
  0
LTYPE
  5
14
330
5
100
AcDbSymbolTableRecord
100
AcDbLinetypeTableRecord
  2
ByBlock
 70
     0
  3

 72
    65
 73
     0
 40
0.0
  0
LTYPE
  5
15
330
5
100
AcDbSymbolTableRecord
100
AcDbLinetypeTableRecord
  2
ByLayer
 70
     0
  3

 72
    65
 73
     0
 40
0.0
  0
LTYPE
  5
16
330
5
100
AcDbSymbolTableRecord
100
AcDbLinetypeTableRecord
  2
Continuous
 70
     0
  3
Solid line
 72
    65
 73
     0
 40
0.0
  0
LTYPE
  5
3F
330
5
100
AcDbSymbolTableRecord
100
AcDbLinetypeTableRecord
  2
HIDDEN
 70
     0
  3
Hidden __ __ __ __ __ __ __ __ __ __ __ __ __ __
 72
    65
 73
     2
 40
1.905
 49
1.27
 74
     0
 49
-0.635
 74
     0
  0
LTYPE
  5
40
330
5
100
AcDbSymbolTableRecord
100
AcDbLinetypeTableRecord
  2
PHANTOM
 70
     0
  3
Phantom ______  __  __  ______  __  __  ______
 72
    65
 73
     6
 40
12.7
 49
6.35
 74
     0
 49
-1.27
 74
     0
 49
1.27
 74
     0
 49
-1.27
 74
     0
 49
1.27
 74
     0
 49
-1.27
 74
     0
  0
LTYPE
  5
41
330
5
100
AcDbSymbolTableRecord
100
AcDbLinetypeTableRecord
  2
CENTER
 70
     0
  3
Center ____ _ ____ _ ____ _ ____ _ ____ _ ____
 72
    65
 73
     4
 40
10.16
 49
6.35
 74
     0
 49
-1.27
 74
     0
 49
1.27
 74
     0
 49
-1.27
 74
     0
  0
LTYPE
  5
42
330
5
100
AcDbSymbolTableRecord
100
AcDbLinetypeTableRecord
  2
CENTERX2
 70
     0
  3
Center (2x) ________  __  ________  __  _____
 72
    65
 73
     4
 40
20.32
 49
12.7
 74
     0
 49
-2.54
 74
     0
 49
2.54
 74
     0
 49
-2.54
 74
     0
  0
LTYPE
  5
43
330
5
100
AcDbSymbolTableRecord
100
AcDbLinetypeTableRecord
  2
DOT2
 70
     0
  3
Dot (.5x) ........................................
 72
    65
 73
     2
 40
0.635
 49
0.0
 74
     0
 49
-0.635
 74
     0
  0
ENDTAB
  0
TABLE
  2
LAYER
  5
2
330
0
100
AcDbSymbolTable
 70
     2
  0
LAYER
  5
10
330
2
100
AcDbSymbolTableRecord
100
AcDbLayerTableRecord
  2
0
 70
     0
 62
     7
  6
Continuous
370
    -3
390
F
  0
LAYER
  5
44
330
2
100
AcDbSymbolTableRecord
100
AcDbLayerTableRecord
  2
SLD-0
 70
     0
 62
   179
  6
Continuous
370
    -3
390
F
  0
ENDTAB
  0
TABLE
  2
STYLE
  5
3
330
0
100
AcDbSymbolTable
 70
     3
  0
STYLE
  5
11
330
3
100
AcDbSymbolTableRecord
100
AcDbTextStyleTableRecord
  2
Standard
 70
     0
 40
0.0
 41
1.0
 50
0.0
 71
     0
 42
2.5
  3
txt
  4

  0
STYLE
  5
45
330
3
100
AcDbSymbolTableRecord
100
AcDbTextStyleTableRecord
  2
SLDTEXTSTYLE0
 70
     0
 40
0.0
 41
0.563
 50
0.0
 71
     0
 42
0.2
  3
TXT
  4

  0
STYLE
  5
C6
330
3
100
AcDbSymbolTableRecord
100
AcDbTextStyleTableRecord
  2
SLDTEXTSTYLE1
 70
     0
 40
0.0
 41
0.605
 50
0.0
 71
     0
 42
0.2
  3
TXT
  4

  0
ENDTAB
  0
TABLE
  2
VIEW
  5
6
330
0
100
AcDbSymbolTable
 70
     0
  0
ENDTAB
  0
TABLE
  2
UCS
  5
7
330
0
100
AcDbSymbolTable
 70
     0
  0
ENDTAB
  0
TABLE
  2
APPID
  5
9
330
0
100
AcDbSymbolTable
 70
     1
  0
APPID
  5
12
330
9
100
AcDbSymbolTableRecord
100
AcDbRegAppTableRecord
  2
ACAD
 70
     0
  0
ENDTAB
  0
TABLE
  2
DIMSTYLE
  5
A
330
0
100
AcDbSymbolTable
 70
     2
100
AcDbDimStyleTable
  0
DIMSTYLE
105
27
330
A
100
AcDbSymbolTableRecord
100
AcDbDimStyleTableRecord
  2
ISO-25
 70
     0
 41
2.5
 42
0.625
 43
3.75
 44
1.25
 73
     0
 74
     0
 77
     1
 78
     8
140
2.5
141
2.5
143
0.0393700787
147
0.625
171
     3
172
     1
178
     0
271
     2
272
     2
274
     3
278
    44
283
     0
284
     8
340
11
  0
DIMSTYLE
105
C7
102
{ACAD_REACTORS
330
C5
102
}
330
A
100
AcDbSymbolTableRecord
100
AcDbDimStyleTableRecord
  2
SLDDIMSTYLE0
 70
     0
 41
4.0
 44
0.0
 45
0.000000001
 73
     0
 74
     0
 77
     1
 78
    12
 79
     3
140
2.5
147
0.625
173
     1
178
     0
271
     0
272
     2
276
     2
284
    12
340
C6
  0
ENDTAB
  0
TABLE
  2
BLOCK_RECORD
  5
1
330
0
100
AcDbSymbolTable
 70
     2
  0
BLOCK_RECORD
  5
1F
330
1
100
AcDbSymbolTableRecord
100
AcDbBlockTableRecord
  2
*Model_Space
340
22
  0
BLOCK_RECORD
  5
1B
330
1
100
AcDbSymbolTableRecord
100
AcDbBlockTableRecord
  2
*Paper_Space
340
1E
  0
BLOCK_RECORD
  5
23
330
1
100
AcDbSymbolTableRecord
100
AcDbBlockTableRecord
  2
*Paper_Space0
340
26
  0
BLOCK_RECORD
  5
C8
330
1
100
AcDbSymbolTableRecord
100
AcDbBlockTableRecord
  2
_D
340
0
  0
ENDTAB
  0
ENDSEC
  0
SECTION
  2
BLOCKS
  0
BLOCK
  5
20
330
1F
100
AcDbEntity
  8
0
100
AcDbBlockBegin
  2
*Model_Space
 70
     0
 10
0.0
 20
0.0
 30
0.0
  3
*Model_Space
  1

  0
ENDBLK
  5
21
330
1F
100
AcDbEntity
  8
0
100
AcDbBlockEnd
  0
BLOCK
  5
1C
330
1B
100
AcDbEntity
 67
     1
  8
0
100
AcDbBlockBegin
  2
*Paper_Space
 70
     0
 10
0.0
 20
0.0
 30
0.0
  3
*Paper_Space
  1

  0
ENDBLK
  5
1D
330
1B
100
AcDbEntity
 67
     1
  8
0
100
AcDbBlockEnd
  0
BLOCK
  5
24
330
23
100
AcDbEntity
  8
0
100
AcDbBlockBegin
  2
*Paper_Space0
 70
     0
 10
0.0
 20
0.0
 30
0.0
  3
*Paper_Space0
  1

  0
ENDBLK
  5
25
330
23
100
AcDbEntity
  8
0
100
AcDbBlockEnd
  0
BLOCK
  5
C9
330
C8
100
AcDbEntity
  8
0
100
AcDbBlockBegin
  2
_D
 70
     0
 10
0.0
 20
0.0
 30
0.0
  3
_D
  1

  0
SOLID
  5
CB
330
C8
100
AcDbEntity
  8
0
  6
Continuous
 62
     7
370
     0
100
AcDbTrace
 10
71.5005349329
 20
185.68196333
 30
0.0
 11
75.5005349329
 21
185.08196333
 31
0.0
 12
75.5005349329
 22
186.28196333
 32
0.0
 13
75.5005349329
 23
186.28196333
 33
0.0
  0
SOLID
  5
CC
330
C8
100
AcDbEntity
  8
0
  6
Continuous
 62
     7
370
     0
100
AcDbTrace
 10
234.6052763008
 20
185.68196333
 30
0.0
 11
230.6052763008
 21
186.28196333
 31
0.0
 12
230.6052763008
 22
185.08196333
 32
0.0
 13
230.6052763008
 23
185.08196333
 33
0.0
  0
LINE
  5
CD
330
C8
100
AcDbEntity
  8
0
  6
Continuous
 62
     7
370
     0
100
AcDbLine
 10
71.5005349329
 20
193.4946490137
 30
0.0
 11
71.5005349329
 21
184.68196333
 31
0.0
  0
LINE
  5
CE
330
C8
100
AcDbEntity
  8
0
  6
Continuous
 62
     7
370
     0
100
AcDbLine
 10
234.6052763008
 20
193.4946490137
 30
0.0
 11
234.6052763008
 21
184.68196333
 31
0.0
  0
LINE
  5
CF
330
C8
100
AcDbEntity
  8
0
  6
Continuous
 62
     7
370
     0
100
AcDbLine
 10
71.5005349329
 20
185.68196333
 30
0.0
 11
234.6052763008
 21
185.68196333
 31
0.0
  0
MTEXT
  5
D0
330
C8
100
AcDbEntity
  8
0
  6
Continuous
 62
     7
370
     0
100
AcDbMText
 10
149.0424890496
 20
188.9046325048
 30
-1.3999593238
 40
2.5
 41
0.0
 71
     1
 72
     1
  1
163
  7
SLDTEXTSTYLE1
 73
     1
 44
1.0
  0
ENDBLK
  5
CA
330
C8
100
AcDbEntity
  8
0
100
AcDbBlockEnd
  0
ENDSEC
  0
SECTION
  2
ENTITIES
  0
MTEXT
  5
46
330
1F
100
AcDbEntity
  8
0
  6
Continuous
 62
     7
370
     0
100
AcDbMText
 10
215.1552559959
 20
395.1435015483
 30
0.0
 40
10.0
 41
0.0
 71
     1
 72
     1
  1
F7   CTP 3
  7
SLDTEXTSTYLE0
 73
     1
 44
1.0
  0
LINE
  5
47
330
1F
100
AcDbEntity
  8
0
  6
Continuous
 62
     7
370
    15
100
AcDbLine
 10
71.5005349329
 20
206.4946490137
 30
0.0
 11
71.5005349329
 21
194.4946490137
 31
0.0
  0
LINE
  5
48
330
1F
100
AcDbEntity
  8
0
  6
Continuous
 62
     7
370
    15
100
AcDbLine
 10
71.5005349329
 20
194.4946490137
 30
0.0
 11
234.6052763008
 21
194.4946490137
 31
0.0
  0
LINE
  5
49
330
1F
100
AcDbEntity
  8
0
  6
Continuous
 62
     7
370
    15
100
AcDbLine
 10
234.6052763008
 20
194.4946490137
 30
0.0
 11
234.6052763008
 21
206.4946490137
 31
0.0
  0
LINE
  5
4A
330
1F
100
AcDbEntity
  8
0
  6
Continuous
 62
     7
370
    15
100
AcDbLine
 10
234.6052763008
 20
206.4946490137
 30
0.0
 11
228.5406328434
 21
206.4946490137
 31
0.0
  0
SPLINE
  5
4B
330
1F
100
AcDbEntity
  8
0
  6
Continuous
 62
     7
370
    15
100
AcDbSpline
210
0.0
220
0.0
230
1.0
 70
     8
 71
     3
 72
    12
 73
     8
 74
     0
 42
0.00000001
 43
0.00000001
 12
1.0
 22
0.0
 32
0.0
 13
1.0
 23
0.0
 33
0.0
 40
0.5253892464393505
 40
0.5253892464393505
 40
0.5253892464393505
 40
0.5253892464393505
 40
0.5402662127822443
 40
0.5402662127822443
 40
0.6027662127822444
 40
0.6027662127822444
 40
0.6398769663428931
 40
0.6398769663428931
 40
0.6398769663428931
 40
0.6398769663428931
 10
215.6527564432924
 20
245.3456692800027
 30
0.0
 10
216.2681956217754
 20
243.6783829259543
 30
0.0
 10
216.8776317692342
 20
242.0094669321976
 30
0.0
 10
220.0174603658459
 20
233.3211019253509
 30
0.0
 10
222.4598321175864
 20
226.2777579793374
 30
0.0
 10
226.0652092646467
 20
214.9743053561771
 30
0.0
 10
227.3446451554901
 20
210.7458040050632
 30
0.0
 10
228.5406328434394
 20
206.4946490137334
 30
0.0
  0
ARC
  5
4C
330
1F
100
AcDbEntity
  8
0
  6
Continuous
 62
     7
370
    15
100
AcDbCircle
 10
206.2714731721
 20
241.8827912594
 30
0.0
 40
9.999999999999996
100
AcDbArc
 50
20.2604278255
 51
90.0
  0
LINE
  5
4D
330
1F
100
AcDbEntity
  8
0
  6
Continuous
 62
     7
370
    15
100
AcDbLine
 10
206.2714731721
 20
251.8827912594
 30
0.0
 11
99.8342847623
 21
251.8827912594
 31
0.0
  0
ARC
  5
4E
330
1F
100
AcDbEntity
  8
0
  6
Continuous
 62
     7
370
    15
100
AcDbCircle
 10
99.8342847623
 20
241.8827912594
 30
0.0
 40
10.0
100
AcDbArc
 50
90.0
 51
159.7406662431
  0
SPLINE
  5
4F
330
1F
100
AcDbEntity
  8
0
  6
Continuous
 62
     7
370
    15
100
AcDbSpline
210
0.0
220
0.0
230
1.0
 70
     8
 71
     3
 72
    12
 73
     8
 74
     0
 42
0.00000001
 43
0.00000001
 12
1.0
 22
0.0
 32
0.0
 13
1.0
 23
0.0
 33
0.0
 40
0.3614785658740112
 40
0.3614785658740112
 40
0.3614785658740112
 40
0.3614785658740112
 40
0.4007091148235789
 40
0.4007091148235789
 40
0.4632091148235788
 40
0.4632091148235788
 40
0.476730548949568
 40
0.476730548949568
 40
0.476730548949568
 40
0.476730548949568
 10
77.56516034247367
 20
206.4946490137314
 30
0.0
 10
78.82271224448121
 20
210.9647019986808
 30
0.0
 10
80.17180099751681
 20
215.4070727337048
 30
0.0
 10
83.8481198128396
 20
226.8729792233106
 30
0.0
 10
86.27988290228251
 20
233.864902470463
 30
0.0
 10
89.34757828436997
 20
242.336262323359
 30
0.0
 10
89.89784475058269
 20
243.8416056845865
 30
0.0
 10
90.45293536880251
 20
245.345490142869
 30
0.0
  0
LINE
  5
50
330
1F
100
AcDbEntity
  8
0
  6
Continuous
 62
     7
370
    15
100
AcDbLine
 10
77.5651603425
 20
206.4946490137
 30
0.0
 11
71.5005349329
 21
206.4946490137
 31
0.0
  0
LINE
  5
51
330
1F
100
AcDbEntity
  8
0
  6
Continuous
 62
     7
370
    15
100
AcDbLine
 10
58.3681907337
 20
115.4014247736
 30
0.0
 11
52.7061413422
 21
113.4160996279
 31
0.0
  0
LINE
  5
52
330
1F
100
AcDbEntity
  8
0
  6
Continuous
 62
     7
370
    15
100
AcDbLine
 10
57.3754758472
 20
118.2323535982
 30
0.0
 11
58.3681907337
 21
115.4014247736
 31
0.0
  0
LINE
  5
53
330
1F
100
AcDbEntity
  8
0
  6
Continuous
 62
     7
370
    15
100
AcDbLine
 10
51.7134264557
 20
116.2470284525
 30
0.0
 11
57.3754758472
 21
118.2323535982
 31
0.0
  0
SPLINE
  5
54
330
1F
100
AcDbEntity
  8
0
  6
Continuous
 62
     7
370
    15
100
AcDbSpline
210
0.0
220
0.0
230
1.0
 70
     8
 71
     3
 72
     8
 73
     4
 74
     0
 42
0.00000001
 43
0.00000001
 12
1.0
 22
0.0
 32
0.0
 13
1.0
 23
0.0
 33
0.0
 40
263.5715377346237
 40
263.5715377346237
 40
263.5715377346237
 40
263.5715377346237
 40
298.9982029483198
 40
298.9982029483198
 40
298.9982029483198
 40
298.9982029483198
 10
45.36359077177018
 20
151.122198307397
 30
0.0
 10
45.82751008087335
 20
139.3022756774967
 30
0.0
 10
47.92437699495174
 20
127.5052417136722
 30
0.0
 10
51.71342645572423
 20
116.2470284525305
 30
0.0
  0
LINE
  5
55
330
1F
100
AcDbEntity
  8
0
  6
Continuous
 62
     7
370
    15
100
AcDbLine
 10
51.3613382228
 20
151.2874068501
 30
0.0
 11
45.3635907718
 21
151.1221983074
 31
0.0
  0
LINE
  5
56
330
1F
100
AcDbEntity
  8
0
  6
Continuous
 62
     7
370
    15
100
AcDbLine
 10
51.278591041
 20
154.2862147829
 30
0.0
 11
51.3613382228
 21
151.2874068501
 31
0.0
  0
LINE
  5
57
330
1F
100
AcDbEntity
  8
0
  6
Continuous
 62
     7
370
    15
100
AcDbLine
 10
45.28084359
 20
154.1210062401
 30
0.0
 11
51.278591041
 21
154.2862147829
 31
0.0
  0
SPLINE
  5
58
330
1F
100
AcDbEntity
  8
0
  6
Continuous
 62
     7
370
    15
100
AcDbSpline
210
0.0
220
0.0
230
1.0
 70
     8
 71
     3
 72
     8
 73
     4
 74
     0
 42
0.00000001
 43
0.00000001
 12
1.0
 22
0.0
 32
0.0
 13
1.0
 23
0.0
 33
0.0
 40
218.1409408348447
 40
218.1409408348447
 40
218.1409408348447
 40
218.1409408348447
 40
260.5757343975095
 40
260.5757343975095
 40
260.5757343975095
 40
260.5757343975095
 10
50.22428446908857
 20
196.2828240291742
 30
0.0
 10
47.12199129605178
 20
182.4305521526643
 30
0.0
 10
45.05400868879927
 20
168.2801163868122
 30
0.0
 10
45.28084358998177
 20
154.1210062401306
 30
0.0
  0
LINE
  5
59
330
1F
100
AcDbEntity
  8
0
  6
Continuous
 62
     7
370
    15
100
AcDbLine
 10
56.0722614831
 20
194.9413118254
 30
0.0
 11
50.2242844691
 21
196.2828240292
 31
0.0
  0
LINE
  5
5A
330
1F
100
AcDbEntity
  8
0
  6
Continuous
 62
     7
370
    15
100
AcDbLine
 10
56.7431247932
 20
197.8653300722
 30
0.0
 11
56.0722614831
 21
194.9413118254
 31
0.0
  0
LINE
  5
5B
330
1F
100
AcDbEntity
  8
0
  6
Continuous
 62
     7
370
    15
100
AcDbLine
 10
50.8951477792
 20
199.206842276
 30
0.0
 11
56.7431247932
 21
197.8653300722
 31
0.0
  0
SPLINE
  5
5C
330
1F
100
AcDbEntity
  8
0
  6
Continuous
 62
     7
370
    15
100
AcDbSpline
210
0.0
220
0.0
230
1.0
 70
     8
 71
     3
 72
     8
 73
     4
 74
     0
 42
0.00000001
 43
0.00000001
 12
1.0
 22
0.0
 32
0.0
 13
1.0
 23
0.0
 33
0.0
 40
167.0182821368296
 40
167.0182821368296
 40
167.0182821368296
 40
167.0182821368296
 40
215.1505268985649
 40
215.1505268985649
 40
215.1505268985649
 40
215.1505268985649
 10
64.89121652013321
 20
245.2594854071986
 30
0.0
 10
59.5004736934517
 20
230.1442176387446
 30
0.0
 10
54.57323320755471
 20
214.8703051481092
 30
0.0
 10
50.89514777915258
 20
199.2068422760183
 30
0.0
  0
LINE
  5
5D
330
1F
100
AcDbEntity
  8
0
  6
Continuous
 62
     7
370
    15
100
AcDbLine
 10
70.5383844673
 20
243.2341292953
 30
0.0
 11
64.8912165201
 21
245.2594854072
 31
0.0
  0
LINE
  5
5E
330
1F
100
AcDbEntity
  8
0
  6
Continuous
 62
     7
370
    15
100
AcDbLine
 10
71.5513530896
 20
246.0579364936
 30
0.0
 11
70.5383844673
 21
243.2341292953
 31
0.0
  0
LINE
  5
5F
330
1F
100
AcDbEntity
  8
0
  6
Continuous
 62
     7
370
    15
100
AcDbLine
 10
65.9041851424
 20
248.0832926056
 30
0.0
 11
71.5513530896
 21
246.0579364936
 31
0.0
  0
SPLINE
  5
60
330
1F
100
AcDbEntity
  8
0
  6
Continuous
 62
     7
370
    15
100
AcDbSpline
210
0.0
220
0.0
230
1.0
 70
     8
 71
     3
 72
     8
 73
     4
 74
     0
 42
0.00000001
 43
0.00000001
 12
1.0
 22
0.0
 32
0.0
 13
1.0
 23
0.0
 33
0.0
 40
147.1622493293758
 40
147.1622493293758
 40
147.1622493293758
 40
147.1622493293758
 40
164.0190426967116
 40
164.0190426967116
 40
164.0190426967116
 40
164.0190426967116
 10
71.79551789268709
 20
263.8827912593725
 30
0.0
 10
69.77338846015137
 20
258.6381686157073
 30
0.0
 10
67.81159787179615
 20
253.3702128491873
 30
0.0
 10
65.90418514239092
 20
248.0832926055581
 30
0.0
  0
LINE
  5
61
330
1F
100
AcDbEntity
  8
0
  6
Continuous
 62
     7
370
    15
100
AcDbLine
 10
71.7955178927
 20
263.8827912594
 30
0.0
 11
103.0529056169
 21
263.8827912594
 31
0.0
  0
LINE
  5
62
330
1F
100
AcDbEntity
  8
0
  6
Continuous
 62
     7
370
    15
100
AcDbLine
 10
103.0529056169
 20
263.8827912594
 30
0.0
 11
103.0529056169
 21
266.8827912594
 31
0.0
  0
LINE
  5
63
330
1F
100
AcDbEntity
  8
0
  6
Continuous
 62
     7
370
    15
100
AcDbLine
 10
103.0529056169
 20
266.8827912594
 30
0.0
 11
72.959833491
 21
266.8827912594
 31
0.0
  0
SPLINE
  5
64
330
1F
100
AcDbEntity
  8
0
  6
Continuous
 62
     7
370
    15
100
AcDbSpline
210
0.0
220
0.0
230
1.0
 70
     8
 71
     3
 72
     8
 73
     4
 74
     0
 42
0.00000001
 43
0.00000001
 12
1.0
 22
0.0
 32
0.0
 13
1.0
 23
0.0
 33
0.0
 40
108.9070087044898
 40
108.9070087044898
 40
108.9070087044898
 40
108.9070087044898
 40
143.9453757494869
 40
143.9453757494869
 40
143.9453757494869
 40
143.9453757494869
 10
86.56469703703208
 20
299.1780570961252
 30
0.0
 10
81.72844244923675
 20
288.5435375714877
 30
0.0
 10
77.21133239654836
 20
277.7653712325088
 30
0.0
 10
72.95983349099669
 20
266.882791259372
 30
0.0
  0
LINE
  5
65
330
1F
100
AcDbEntity
  8
0
  6
Continuous
 62
     7
370
    15
100
AcDbLine
 10
92.0196341379
 20
296.6805943017
 30
0.0
 11
86.564697037
 21
299.1780570961
 31
0.0
  0
LINE
  5
66
330
1F
100
AcDbEntity
  8
0
  6
Continuous
 62
     7
370
    15
100
AcDbLine
 10
93.2685977394
 20
299.4082443485
 30
0.0
 11
92.0196341379
 21
296.6805943017
 31
0.0
  0
LINE
  5
67
330
1F
100
AcDbEntity
  8
0
  6
Continuous
 62
     7
370
    15
100
AcDbLine
 10
87.8136606386
 20
301.905707143
 30
0.0
 11
93.2685977394
 21
299.4082443485
 31
0.0
  0
SPLINE
  5
68
330
1F
100
AcDbEntity
  8
0
  6
Continuous
 62
     7
370
    15
100
AcDbSpline
210
0.0
220
0.0
230
1.0
 70
     8
 71
     3
 72
     8
 73
     4
 74
     0
 42
0.00000001
 43
0.00000001
 12
1.0
 22
0.0
 32
0.0
 13
1.0
 23
0.0
 33
0.0
 40
54.25078551158595
 40
54.25078551158595
 40
54.25078551158595
 40
54.25078551158595
 40
105.9078395102436
 40
105.9078395102436
 40
105.9078395102436
 40
105.9078395102436
 10
112.2890729037228
 20
347.398712164013
 30
0.0
 10
102.955498035275
 20
332.8599513820471
 30
0.0
 10
95.02530917326595
 20
317.5472280087865
 30
0.0
 10
87.81366063856709
 20
301.9057071429501
 30
0.0
  0
LINE
  5
69
330
1F
100
AcDbEntity
  8
0
  6
Continuous
 62
     7
370
    15
100
AcDbLine
 10
117.320622573
 20
344.1301519341
 30
0.0
 11
112.2890729037
 21
347.398712164
 31
0.0
  0
LINE
  5
6A
330
1F
100
AcDbEntity
  8
0
  6
Continuous
 62
     7
370
    15
100
AcDbLine
 10
118.955122425
 20
346.6457712143
 30
0.0
 11
117.320622573
 21
344.1301519341
 31
0.0
  0
LINE
  5
6B
330
1F
100
AcDbEntity
  8
0
  6
Continuous
 62
     7
370
    15
100
AcDbLine
 10
113.9235727557
 20
349.9143314442
 30
0.0
 11
118.955122425
 21
346.6457712143
 31
0.0
  0
SPLINE
  5
6C
330
1F
100
AcDbEntity
  8
0
  6
Continuous
 62
     7
370
    15
100
AcDbSpline
210
0.0
220
0.0
230
1.0
 70
     8
 71
     3
 72
     8
 73
     4
 74
     0
 42
0.00000001
 43
0.00000001
 12
1.0
 22
0.0
 32
0.0
 13
1.0
 23
0.0
 33
0.0
 40
30.03786323997306
 40
30.03786323997306
 40
30.03786323997306
 40
30.03786323997306
 40
51.26190029568154
 40
51.26190029568154
 40
51.26190029568154
 40
51.26190029568154
 10
126.9228571472662
 20
366.7026192822876
 30
0.0
 10
122.0058011537994
 20
361.6131712306168
 30
0.0
 10
117.8281472995359
 20
355.8480172951286
 30
0.0
 10
113.9235727556855
 20
349.9143314442418
 30
0.0
  0
LINE
  5
6D
330
1F
100
AcDbEntity
  8
0
  6
Continuous
 62
     7
370
    15
100
AcDbLine
 10
131.1517542961
 20
362.4462798375
 30
0.0
 11
126.9228571473
 21
366.7026192823
 31
0.0
  0
LINE
  5
6E
330
1F
100
AcDbEntity
  8
0
  6
Continuous
 62
     7
370
    15
100
AcDbLine
 10
133.2802934304
 20
364.5601203119
 30
0.0
 11
131.1517542961
 21
362.4462798375
 31
0.0
  0
LINE
  5
6F
330
1F
100
AcDbEntity
  8
0
  6
Continuous
 62
     7
370
    15
100
AcDbLine
 10
129.0513962815
 20
368.8164597566
 30
0.0
 11
133.2802934304
 21
364.5601203119
 31
0.0
  0
SPLINE
  5
70
330
1F
100
AcDbEntity
  8
0
  6
Continuous
 62
     7
370
    15
100
AcDbSpline
210
0.0
220
0.0
230
1.0
 70
     8
 71
     3
 72
     8
 73
     4
 74
     0
 42
0.00000001
 43
0.00000001
 12
1.0
 22
0.0
 32
0.0
 13
1.0
 23
0.0
 33
0.0
 40
15.26592668892578
 40
15.26592668892578
 40
15.26592668892578
 40
15.26592668892578
 40
27.04086195704414
 40
27.04086195704414
 40
27.04086195704414
 40
27.04086195704414
 10
138.4316479228756
 20
375.9524246043112
 30
0.0
 10
134.9982966757557
 20
373.9856913218025
 30
0.0
 10
131.900466922231
 20
371.5260344713328
 30
0.0
 10
129.0513962815457
 20
368.8164597566375
 30
0.0
  0
LINE
  5
71
330
1F
100
AcDbEntity
  8
0
  6
Continuous
 62
     7
370
    15
100
AcDbLine
 10
141.2098158848
 20
370.6343610701
 30
0.0
 11
138.4316479229
 21
375.9524246043
 31
0.0
  0
LINE
  5
72
330
1F
100
AcDbEntity
  8
0
  6
Continuous
 62
     7
370
    15
100
AcDbLine
 10
143.8687206419
 20
372.0224147266
 30
0.0
 11
141.2098158848
 21
370.6343610701
 31
0.0
  0
LINE
  5
73
330
1F
100
AcDbEntity
  8
0
  6
Continuous
 62
     7
370
    15
100
AcDbLine
 10
141.09055268
 20
377.3404782608
 30
0.0
 11
143.8687206419
 21
372.0224147266
 31
0.0
  0
SPLINE
  5
74
330
1F
100
AcDbEntity
  8
0
  6
Continuous
 62
     7
370
    15
100
AcDbSpline
210
0.0
220
0.0
230
1.0
 70
     8
 71
     3
 72
     8
 73
     4
 74
     0
 42
0.00000001
 43
0.00000001
 12
1.0
 22
0.0
 32
0.0
 13
1.0
 23
0.0
 33
0.0
 40
1.499780877282472
 40
1.499780877282472
 40
1.499780877282472
 40
1.499780877282472
 40
12.3000111384746
 40
12.3000111384746
 40
12.3000111384746
 40
12.3000111384746
 10
151.5537408425983
 20
380.2088354790032
 30
0.0
 10
147.9580899142884
 20
379.9707762409301
 30
0.0
 10
144.3942320661084
 20
378.8995391620784
 30
0.0
 10
141.0905526799853
 20
377.340478260771
 30
0.0
  0
LINE
  5
75
330
1F
100
AcDbEntity
  8
0
  6
Continuous
 62
     7
370
    15
100
AcDbLine
 10
151.5537408426
 20
374.208835479
 30
0.0
 11
151.5537408426
 21
380.208835479
 31
0.0
  0
LINE
  5
76
330
1F
100
AcDbEntity
  8
0
  6
Continuous
 62
     7
370
    15
100
AcDbLine
 10
154.5520703912
 20
374.208835479
 30
0.0
 11
151.5537408426
 21
374.208835479
 31
0.0
  0
LINE
  5
77
330
1F
100
AcDbEntity
  8
0
  6
Continuous
 62
     7
370
    15
100
AcDbLine
 10
154.5520703912
 20
380.208835479
 30
0.0
 11
154.5520703912
 21
374.208835479
 31
0.0
  0
SPLINE
  5
78
330
1F
100
AcDbEntity
  8
0
  6
Continuous
 62
     7
370
    15
100
AcDbSpline
210
0.0
220
0.0
230
1.0
 70
     8
 71
     3
 72
     8
 73
     4
 74
     0
 42
0.00000001
 43
0.00000001
 12
1.0
 22
0.0
 32
0.0
 13
1.0
 23
0.0
 33
0.0
 40
420.9570064006485
 40
420.9570064006485
 40
420.9570064006485
 40
420.9570064006485
 40
431.7572366618369
 40
431.7572366618369
 40
431.7572366618369
 40
431.7572366618369
 10
165.0152585537634
 20
377.3404782607572
 30
0.0
 10
161.7115791676428
 20
378.899539162067
 30
0.0
 10
158.1477213194647
 20
379.9707762409222
 30
0.0
 10
154.5520703911562
 20
380.2088354790009
 30
0.0
  0
LINE
  5
79
330
1F
100
AcDbEntity
  8
0
  6
Continuous
 62
     7
370
    15
100
AcDbLine
 10
162.2370905919
 20
372.0224147266
 30
0.0
 11
165.0152585538
 21
377.3404782608
 31
0.0
  0
LINE
  5
7A
330
1F
100
AcDbEntity
  8
0
  6
Continuous
 62
     7
370
    15
100
AcDbLine
 10
164.895995349
 20
370.6343610701
 30
0.0
 11
162.2370905919
 21
372.0224147266
 31
0.0
  0
LINE
  5
7B
330
1F
100
AcDbEntity
  8
0
  6
Continuous
 62
     7
370
    15
100
AcDbLine
 10
167.6741633109
 20
375.9524246043
 30
0.0
 11
164.895995349
 21
370.6343610701
 31
0.0
  0
SPLINE
  5
7C
330
1F
100
AcDbEntity
  8
0
  6
Continuous
 62
     7
370
    15
100
AcDbSpline
210
0.0
220
0.0
230
1.0
 70
     8
 71
     3
 72
     8
 73
     4
 74
     0
 42
0.00000001
 43
0.00000001
 12
1.0
 22
0.0
 32
0.0
 13
1.0
 23
0.0
 33
0.0
 40
406.2161555820949
 40
406.2161555820949
 40
406.2161555820949
 40
406.2161555820949
 40
417.991090850199
 40
417.991090850199
 40
417.991090850199
 40
417.991090850199
 10
177.0544149521855
 20
368.8164597566266
 30
0.0
 10
174.2053443115044
 20
371.5260344713193
 30
0.0
 10
171.1075145579846
 20
373.9856913217873
 30
0.0
 10
167.6741633108704
 20
375.9524246042961
 30
0.0
  0
LINE
  5
7D
330
1F
100
AcDbEntity
  8
0
  6
Continuous
 62
     7
370
    15
100
AcDbLine
 10
172.8255178033
 20
364.5601203119
 30
0.0
 11
177.0544149522
 21
368.8164597566
 31
0.0
  0
LINE
  5
7E
330
1F
100
AcDbEntity
  8
0
  6
Continuous
 62
     7
370
    15
100
AcDbLine
 10
174.9540569376
 20
362.4462798375
 30
0.0
 11
172.8255178033
 21
364.5601203119
 31
0.0
  0
LINE
  5
7F
330
1F
100
AcDbEntity
  8
0
  6
Continuous
 62
     7
370
    15
100
AcDbLine
 10
179.1829540865
 20
366.7026192823
 30
0.0
 11
174.9540569376
 21
362.4462798375
 31
0.0
  0
SPLINE
  5
80
330
1F
100
AcDbEntity
  8
0
  6
Continuous
 62
     7
370
    15
100
AcDbSpline
210
0.0
220
0.0
230
1.0
 70
     8
 71
     3
 72
     8
 73
     4
 74
     0
 42
0.00000001
 43
0.00000001
 12
1.0
 22
0.0
 32
0.0
 13
1.0
 23
0.0
 33
0.0
 40
381.9951172434541
 40
381.9951172434541
 40
381.9951172434541
 40
381.9951172434541
 40
403.2191542991602
 40
403.2191542991602
 40
403.2191542991602
 40
403.2191542991602
 10
192.1822384780443
 20
349.9143314442261
 30
0.0
 10
188.2776639341949
 20
355.8480172951125
 30
0.0
 10
184.1000100799331
 20
361.6131712306008
 30
0.0
 10
179.1829540864684
 20
366.7026192822723
 30
0.0
  0
LINE
  5
81
330
1F
100
AcDbEntity
  8
0
  6
Continuous
 62
     7
370
    15
100
AcDbLine
 10
187.1506888088
 20
346.6457712143
 30
0.0
 11
192.1822384781
 21
349.9143314442
 31
0.0
  0
LINE
  5
82
330
1F
100
AcDbEntity
  8
0
  6
Continuous
 62
     7
370
    15
100
AcDbLine
 10
188.7851886608
 20
344.1301519341
 30
0.0
 11
187.1506888088
 21
346.6457712143
 31
0.0
  0
LINE
  5
83
330
1F
100
AcDbEntity
  8
0
  6
Continuous
 62
     7
370
    15
100
AcDbLine
 10
193.81673833
 20
347.398712164
 30
0.0
 11
188.7851886608
 21
344.1301519341
 31
0.0
  0
SPLINE
  5
84
330
1F
100
AcDbEntity
  8
0
  6
Continuous
 62
     7
370
    15
100
AcDbSpline
210
0.0
220
0.0
230
1.0
 70
     8
 71
     3
 72
     8
 73
     4
 74
     0
 42
0.00000001
 43
0.00000001
 12
1.0
 22
0.0
 32
0.0
 13
1.0
 23
0.0
 33
0.0
 40
327.3491780288961
 40
327.3491780288961
 40
327.3491780288961
 40
327.3491780288961
 40
379.0062320275501
 40
379.0062320275501
 40
379.0062320275501
 40
379.0062320275501
 10
218.2921505951607
 20
301.9057071429376
 30
0.0
 10
211.080502060462
 20
317.547228008773
 30
0.0
 10
203.1503131984529
 20
332.8599513820325
 30
0.0
 10
193.8167383300067
 20
347.3987121639976
 30
0.0
  0
LINE
  5
85
330
1F
100
AcDbEntity
  8
0
  6
Continuous
 62
     7
370
    15
100
AcDbLine
 10
212.8372134944
 20
299.4082443485
 30
0.0
 11
218.2921505952
 21
301.905707143
 31
0.0
  0
LINE
  5
86
330
1F
100
AcDbEntity
  8
0
  6
Continuous
 62
     7
370
    15
100
AcDbLine
 10
214.0861770959
 20
296.6805943017
 30
0.0
 11
212.8372134944
 21
299.4082443485
 31
0.0
  0
LINE
  5
87
330
1F
100
AcDbEntity
  8
0
  6
Continuous
 62
     7
370
    15
100
AcDbLine
 10
219.5411141967
 20
299.1780570961
 30
0.0
 11
214.0861770959
 21
296.6805943017
 31
0.0
  0
SPLINE
  5
88
330
1F
100
AcDbEntity
  8
0
  6
Continuous
 62
     7
370
    15
100
AcDbSpline
210
0.0
220
0.0
230
1.0
 70
     8
 71
     3
 72
     8
 73
     4
 74
     0
 42
0.00000001
 43
0.00000001
 12
1.0
 22
0.0
 32
0.0
 13
1.0
 23
0.0
 33
0.0
 40
289.3116417896671
 40
289.3116417896671
 40
289.3116417896671
 40
289.3116417896671
 40
324.3500088346504
 40
324.3500088346504
 40
324.3500088346504
 40
324.3500088346504
 10
233.1459777427263
 20
266.8827912593729
 30
0.0
 10
228.894478837176
 20
277.7653712325053
 30
0.0
 10
224.3773687844892
 20
288.5435375714799
 30
0.0
 10
219.5411141966956
 20
299.1780570961132
 30
0.0
  0
LINE
  5
89
330
1F
100
AcDbEntity
  8
0
  6
Continuous
 62
     7
370
    15
100
AcDbLine
 10
233.1459777427
 20
266.8827912594
 30
0.0
 11
203.0529056169
 21
266.8827912594
 31
0.0
  0
LINE
  5
8A
330
1F
100
AcDbEntity
  8
0
  6
Continuous
 62
     7
370
    15
100
AcDbLine
 10
203.0529056169
 20
266.8827912594
 30
0.0
 11
203.0529056169
 21
263.8827912594
 31
0.0
  0
LINE
  5
8B
330
1F
100
AcDbEntity
  8
0
  6
Continuous
 62
     7
370
    15
100
AcDbLine
 10
203.0529056169
 20
263.8827912594
 30
0.0
 11
234.310293341
 21
263.8827912594
 31
0.0
  0
SPLINE
  5
8C
330
1F
100
AcDbEntity
  8
0
  6
Continuous
 62
     7
370
    15
100
AcDbSpline
210
0.0
220
0.0
230
1.0
 70
     8
 71
     3
 72
     8
 73
     4
 74
     0
 42
0.00000001
 43
0.00000001
 12
1.0
 22
0.0
 32
0.0
 13
1.0
 23
0.0
 33
0.0
 40
269.2379748424311
 40
269.2379748424311
 40
269.2379748424311
 40
269.2379748424311
 40
286.0947682097776
 40
286.0947682097776
 40
286.0947682097776
 40
286.0947682097776
 10
240.2016260913365
 20
248.0832926055486
 30
0.0
 10
238.29421336193
 20
253.370212849181
 30
0.0
 10
236.3324227735734
 20
258.6381686157044
 30
0.0
 10
234.3102933410363
 20
263.8827912593729
 30
0.0
  0
LINE
  5
8D
330
1F
100
AcDbEntity
  8
0
  6
Continuous
 62
     7
370
    15
100
AcDbLine
 10
234.5544581442
 20
246.0579364936
 30
0.0
 11
240.2016260914
 21
248.0832926056
 31
0.0
  0
LINE
  5
8E
330
1F
100
AcDbEntity
  8
0
  6
Continuous
 62
     7
370
    15
100
AcDbLine
 10
235.5674267664
 20
243.2341292953
 30
0.0
 11
234.5544581442
 21
246.0579364936
 31
0.0
  0
LINE
  5
8F
330
1F
100
AcDbEntity
  8
0
  6
Continuous
 62
     7
370
    15
100
AcDbLine
 10
241.2145947136
 20
245.2594854072
 30
0.0
 11
235.5674267664
 21
243.2341292953
 31
0.0
  0
SPLINE
  5
90
330
1F
100
AcDbEntity
  8
0
  6
Continuous
 62
     7
370
    15
100
AcDbSpline
210
0.0
220
0.0
230
1.0
 70
     8
 71
     3
 72
     8
 73
     4
 74
     0
 42
0.00000001
 43
0.00000001
 12
1.0
 22
0.0
 32
0.0
 13
1.0
 23
0.0
 33
0.0
 40
218.1064906405815
 40
218.1064906405815
 40
218.1064906405815
 40
218.1064906405815
 40
266.238735402313
 40
266.238735402313
 40
266.238735402313
 40
266.238735402313
 10
255.2106634545739
 20
199.2068422760122
 30
0.0
 10
251.5325780261727
 20
214.8703051481019
 30
0.0
 10
246.6053375402757
 20
230.1442176387361
 30
0.0
 10
241.2145947135943
 20
245.2594854071889
 30
0.0
  0
LINE
  5
91
330
1F
100
AcDbEntity
  8
0
  6
Continuous
 62
     7
370
    15
100
AcDbLine
 10
249.3626864405
 20
197.8653300722
 30
0.0
 11
255.2106634546
 21
199.206842276
 31
0.0
  0
LINE
  5
92
330
1F
100
AcDbEntity
  8
0
  6
Continuous
 62
     7
370
    15
100
AcDbLine
 10
250.0335497506
 20
194.9413118254
 30
0.0
 11
249.3626864405
 21
197.8653300722
 31
0.0
  0
LINE
  5
93
330
1F
100
AcDbEntity
  8
0
  6
Continuous
 62
     7
370
    15
100
AcDbLine
 10
255.8815267646
 20
196.2828240292
 30
0.0
 11
250.0335497506
 21
194.9413118254
 31
0.0
  0
SPLINE
  5
94
330
1F
100
AcDbEntity
  8
0
  6
Continuous
 62
     7
370
    15
100
AcDbSpline
210
0.0
220
0.0
230
1.0
 70
     8
 71
     3
 72
     8
 73
     4
 74
     0
 42
0.00000001
 43
0.00000001
 12
1.0
 22
0.0
 32
0.0
 13
1.0
 23
0.0
 33
0.0
 40
172.6812831416432
 40
172.6812831416432
 40
172.6812831416432
 40
172.6812831416432
 40
215.1160767043013
 40
215.1160767043013
 40
215.1160767043013
 40
215.1160767043013
 10
260.8249676437421
 20
154.121006240131
 30
0.0
 10
261.0518025449239
 20
168.2801163868104
 30
0.0
 10
258.9838199376733
 20
182.4305521526602
 30
0.0
 10
255.8815267646378
 20
196.2828240291678
 30
0.0
  0
LINE
  5
95
330
1F
100
AcDbEntity
  8
0
  6
Continuous
 62
     7
370
    15
100
AcDbLine
 10
254.8272201928
 20
154.2862147829
 30
0.0
 11
260.8249676438
 21
154.1210062401
 31
0.0
  0
LINE
  5
96
330
1F
100
AcDbEntity
  8
0
  6
Continuous
 62
     7
370
    15
100
AcDbLine
 10
254.744473011
 20
151.2874068501
 30
0.0
 11
254.8272201928
 21
154.2862147829
 31
0.0
  0
LINE
  5
97
330
1F
100
AcDbEntity
  8
0
  6
Continuous
 62
     7
370
    15
100
AcDbLine
 10
260.742220462
 20
151.1221983074
 30
0.0
 11
254.744473011
 21
151.2874068501
 31
0.0
  0
SPLINE
  5
98
330
1F
100
AcDbEntity
  8
0
  6
Continuous
 62
     7
370
    15
100
AcDbSpline
210
0.0
220
0.0
230
1.0
 70
     8
 71
     3
 72
     8
 73
     4
 74
     0
 42
0.00000001
 43
0.00000001
 12
1.0
 22
0.0
 32
0.0
 13
1.0
 23
0.0
 33
0.0
 40
134.2588145908411
 40
134.2588145908411
 40
134.2588145908411
 40
134.2588145908411
 40
169.6854798045297
 40
169.6854798045297
 40
169.6854798045297
 40
169.6854798045297
 10
254.3923847780063
 20
116.2470284525386
 30
0.0
 10
258.1814342387762
 20
127.5052417136783
 30
0.0
 10
260.2783011528516
 20
139.3022756775003
 30
0.0
 10
260.7422204619538
 20
151.1221983073981
 30
0.0
  0
LINE
  5
99
330
1F
100
AcDbEntity
  8
0
  6
Continuous
 62
     7
370
    15
100
AcDbLine
 10
248.7303353865
 20
118.2323535982
 30
0.0
 11
254.392384778
 21
116.2470284525
 31
0.0
  0
LINE
  5
9A
330
1F
100
AcDbEntity
  8
0
  6
Continuous
 62
     7
370
    15
100
AcDbLine
 10
247.7376205001
 20
115.4014247736
 30
0.0
 11
248.7303353865
 21
118.2323535982
 31
0.0
  0
LINE
  5
9B
330
1F
100
AcDbEntity
  8
0
  6
Continuous
 62
     7
370
    15
100
AcDbLine
 10
253.3996698916
 20
113.4160996279
 30
0.0
 11
247.7376205001
 21
115.4014247736
 31
0.0
  0
SPLINE
  5
9C
330
1F
100
AcDbEntity
  8
0
  6
Continuous
 62
     7
370
    15
100
AcDbSpline
210
0.0
220
0.0
230
1.0
 70
     8
 71
     3
 72
     8
 73
     4
 74
     0
 42
0.00000001
 43
0.00000001
 12
1.0
 22
0.0
 32
0.0
 13
1.0
 23
0.0
 33
0.0
 40
100.6312637223664
 40
100.6312637223664
 40
100.6312637223664
 40
100.6312637223664
 40
131.2770729308406
 40
131.2770729308406
 40
131.2770729308406
 40
131.2770729308406
 10
239.1472074569463
 20
86.17373242087373
 30
0.0
 10
245.0885280723866
 20
94.54132068695617
 30
0.0
 10
249.8755304889197
 20
103.7589952571241
 30
0.0
 10
253.3996698915475
 20
113.4160996278794
 30
0.0
  0
LINE
  5
9D
330
1F
100
AcDbEntity
  8
0
  6
Continuous
 62
     7
370
    15
100
AcDbLine
 10
236.7011044485
 20
87.9105628882
 30
0.0
 11
239.1472074569
 21
86.1737324209
 31
0.0
  0
SPLINE
  5
9E
330
1F
100
AcDbEntity
  8
0
  6
Continuous
 62
     7
370
    15
100
AcDbSpline
210
0.0
220
0.0
230
1.0
 70
     8
 71
     3
 72
     8
 73
     4
 74
     0
 42
0.00000001
 43
0.00000001
 12
1.0
 22
0.0
 32
0.0
 13
1.0
 23
0.0
 33
0.0
 40
92.49188395251352
 40
92.49188395251352
 40
92.49188395251352
 40
92.49188395251352
 40
100.6312637230435
 40
100.6312637230435
 40
100.6312637230435
 40
100.6312637230435
 10
231.8663193028492
 20
81.61515134037126
 30
0.0
 10
233.5570837541237
 20
83.6523009260604
 30
0.0
 10
235.170164564454
 20
85.75443036490647
 30
0.0
 10
236.7011044485102
 20
87.91056288816775
 30
0.0
  0
LINE
  5
9F
330
1F
100
AcDbEntity
  8
0
  6
Continuous
 62
     7
370
    15
100
AcDbLine
 10
229.5861592155
 20
83.5640178407
 30
0.0
 11
231.8663193028
 21
81.6151513404
 31
0.0
  0
LINE
  5
A0
330
1F
100
AcDbEntity
  8
0
  6
Continuous
 62
     7
370
    15
100
AcDbLine
 10
227.6368978153
 20
81.2836823195
 30
0.0
 11
229.5861592155
 21
83.5640178407
 31
0.0
  0
LINE
  5
A1
330
1F
100
AcDbEntity
  8
0
  6
Continuous
 62
     7
370
    15
100
AcDbLine
 10
229.9170924566
 20
79.3347862858
 30
0.0
 11
227.6368978153
 21
81.2836823195
 31
0.0
  0
SPLINE
  5
A2
330
1F
100
AcDbEntity
  8
0
  6
Continuous
 62
     7
370
    15
100
AcDbSpline
210
0.0
220
0.0
230
1.0
 70
     8
 71
     3
 72
     9
 73
     5
 74
     0
 42
0.00000001
 43
0.00000001
 12
1.0
 22
0.0
 32
0.0
 13
1.0
 23
0.0
 33
0.0
 40
71.30444089506649
 40
71.30444089506649
 40
71.30444089506649
 40
71.30444089506649
 40
85.96785230905498
 40
89.4169957597203
 40
89.4169957597203
 40
89.4169957597203
 40
89.4169957597203
 10
217.1537968628151
 20
67.20018884343712
 30
0.0
 10
220.8823746841613
 20
70.14765530398002
 30
0.0
 10
225.2126900972632
 20
74.13765083650136
 30
0.0
 10
229.1760113140513
 20
78.49299260868217
 30
0.0
 10
229.9170924565879
 20
79.33478628575688
 30
0.0
  0
LINE
  5
A3
330
1F
100
AcDbEntity
  8
0
  6
Continuous
 62
     7
370
    15
100
AcDbLine
 10
219.071542677
 20
64.7742190807
 30
0.0
 11
217.1537968628
 21
67.2001888434
 31
0.0
  0
SPLINE
  5
A4
330
1F
100
AcDbEntity
  8
0
  6
Continuous
 62
     7
370
    15
100
AcDbSpline
210
0.0
220
0.0
230
1.0
 70
     8
 71
     3
 72
     8
 73
     4
 74
     0
 42
0.00000001
 43
0.00000001
 12
1.0
 22
0.0
 32
0.0
 13
1.0
 23
0.0
 33
0.0
 40
47.40160782293876
 40
47.40160782293876
 40
47.40160782293876
 40
47.40160782293876
 40
71.30662504808052
 40
71.30662504808052
 40
71.30662504808052
 40
71.30662504808052
 10
198.9147755582555
 20
51.6136596027301
 30
0.0
 10
206.0895699762412
 20
55.31212620676565
 30
0.0
 10
212.859013307478
 20
59.71964082578032
 30
0.0
 10
219.0715426770405
 20
64.77421908071909
 30
0.0
  0
LINE
  5
A5
330
1F
100
AcDbEntity
  8
0
  6
Continuous
 62
     7
370
    15
100
AcDbLine
 10
196.2327216016
 20
56.980801186
 30
0.0
 11
198.9147755583
 21
51.6136596027
 31
0.0
  0
LINE
  5
A6
330
1F
100
AcDbEntity
  8
0
  6
Continuous
 62
     7
370
    15
100
AcDbLine
 10
193.5492188159
 20
55.6397342169
 30
0.0
 11
196.2327216016
 21
56.980801186
 31
0.0
  0
LINE
  5
A7
330
1F
100
AcDbEntity
  8
0
  6
Continuous
 62
     7
370
    15
100
AcDbLine
 10
196.2312727725
 20
50.2725926336
 30
0.0
 11
193.5492188159
 21
55.6397342169
 31
0.0
  0
SPLINE
  5
A8
330
1F
100
AcDbEntity
  8
0
  6
Continuous
 62
     7
370
    15
100
AcDbSpline
210
0.0
220
0.0
230
1.0
 70
     8
 71
     3
 72
     8
 73
     4
 74
     0
 42
0.00000001
 43
0.00000001
 12
1.0
 22
0.0
 32
0.0
 13
1.0
 23
0.0
 33
0.0
 40
1.499886482338661
 40
1.499886482338661
 40
1.499886482338661
 40
1.499886482338661
 40
44.44167589162696
 40
44.44167589162696
 40
44.44167589162696
 40
44.44167589162696
 10
154.5528428772537
 20
39.70802810361981
 30
0.0
 10
168.8672452892548
 20
39.96932463981221
 30
0.0
 10
183.167087640499
 20
43.94717623006652
 30
0.0
 10
196.2312727725238
 20
50.27259263358014
 30
0.0
  0
LINE
  5
A9
330
1F
100
AcDbEntity
  8
0
  6
Continuous
 62
     7
370
    15
100
AcDbLine
 10
154.5528428773
 20
45.7080281036
 30
0.0
 11
154.5528428773
 21
39.7080281036
 31
0.0
  0
LINE
  5
AA
330
1F
100
AcDbEntity
  8
0
  6
Continuous
 62
     7
370
    15
100
AcDbLine
 10
151.5529683565
 20
45.7080281036
 30
0.0
 11
154.5528428773
 21
45.7080281036
 31
0.0
  0
LINE
  5
AB
330
1F
100
AcDbEntity
  8
0
  6
Continuous
 62
     7
370
    15
100
AcDbLine
 10
151.5529683565
 20
39.7080281036
 30
0.0
 11
151.5529683565
 21
45.7080281036
 31
0.0
  0
SPLINE
  5
AC
330
1F
100
AcDbEntity
  8
0
  6
Continuous
 62
     7
370
    15
100
AcDbSpline
210
0.0
220
0.0
230
1.0
 70
     8
 71
     3
 72
     8
 73
     4
 74
     0
 42
0.00000001
 43
0.00000001
 12
1.0
 22
0.0
 32
0.0
 13
1.0
 23
0.0
 33
0.0
 40
388.8153416475524
 40
388.8153416475524
 40
388.8153416475524
 40
388.8153416475524
 40
431.7571310568686
 40
431.7571310568686
 40
431.7571310568686
 40
431.7571310568686
 10
109.8745384612251
 20
50.27259263356837
 30
0.0
 10
122.9387235932597
 20
43.94717623005365
 30
0.0
 10
137.2385659445155
 20
39.96932463980202
 30
0.0
 10
151.5529683565267
 20
39.70802810361882
 30
0.0
  0
LINE
  5
AD
330
1F
100
AcDbEntity
  8
0
  6
Continuous
 62
     7
370
    15
100
AcDbLine
 10
112.5565924179
 20
55.6397342169
 30
0.0
 11
109.8745384612
 21
50.2725926336
 31
0.0
  0
LINE
  5
AE
330
1F
100
AcDbEntity
  8
0
  6
Continuous
 62
     7
370
    15
100
AcDbLine
 10
109.8730896321
 20
56.980801186
 30
0.0
 11
112.5565924179
 21
55.6397342169
 31
0.0
  0
LINE
  5
AF
330
1F
100
AcDbEntity
  8
0
  6
Continuous
 62
     7
370
    15
100
AcDbLine
 10
107.1910356755
 20
51.6136596027
 30
0.0
 11
109.8730896321
 21
56.980801186
 31
0.0
  0
SPLINE
  5
B0
330
1F
100
AcDbEntity
  8
0
  6
Continuous
 62
     7
370
    15
100
AcDbSpline
210
0.0
220
0.0
230
1.0
 70
     8
 71
     3
 72
     8
 73
     4
 74
     0
 42
0.00000001
 43
0.00000001
 12
1.0
 22
0.0
 32
0.0
 13
1.0
 23
0.0
 33
0.0
 40
361.9503924911145
 40
361.9503924911145
 40
361.9503924911145
 40
361.9503924911145
 40
385.8554097162404
 40
385.8554097162404
 40
385.8554097162404
 40
385.8554097162404
 10
87.03426855671852
 20
64.774219080692
 30
0.0
 10
93.24679792627823
 20
59.71964082575898
 30
0.0
 10
100.0162412575114
 20
55.31212620674928
 30
0.0
 10
107.191035675493
 20
51.61365960271777
 30
0.0
  0
LINE
  5
B1
330
1F
100
AcDbEntity
  8
0
  6
Continuous
 62
     7
370
    15
100
AcDbLine
 10
87.0342685567
 20
64.7742190807
 30
0.0
 11
88.952014371
 21
67.2001888434
 31
0.0
  0
SPLINE
  5
B2
330
1F
100
AcDbEntity
  8
0
  6
Continuous
 62
     7
370
    15
100
AcDbSpline
210
0.0
220
0.0
230
1.0
 70
     8
 71
     3
 72
     9
 73
     5
 74
     0
 42
0.00000001
 43
0.00000001
 12
1.0
 22
0.0
 32
0.0
 13
1.0
 23
0.0
 33
0.0
 40
71.30444089506649
 40
71.30444089506649
 40
71.30444089506649
 40
71.30444089506649
 40
85.96785230905498
 40
89.4169957597203
 40
89.4169957597203
 40
89.4169957597203
 40
89.4169957597203
 10
88.95201437096534
 20
67.20018884343712
 30
0.0
 10
85.22343654961914
 20
70.14765530398002
 30
0.0
 10
80.89312113651721
 20
74.13765083650136
 30
0.0
 10
76.92979991972915
 20
78.49299260868217
 30
0.0
 10
76.18871877719256
 20
79.33478628575688
 30
0.0
  0
LINE
  5
B3
330
1F
100
AcDbEntity
  8
0
  6
Continuous
 62
     7
370
    15
100
AcDbLine
 10
78.4689134185
 20
81.2836823195
 30
0.0
 11
76.1887187772
 21
79.3347862858
 31
0.0
  0
LINE
  5
B4
330
1F
100
AcDbEntity
  8
0
  6
Continuous
 62
     7
370
    15
100
AcDbLine
 10
76.5196520183
 20
83.5640178407
 30
0.0
 11
78.4689134185
 21
81.2836823195
 31
0.0
  0
LINE
  5
B5
330
1F
100
AcDbEntity
  8
0
  6
Continuous
 62
     7
370
    15
100
AcDbLine
 10
74.2394919309
 20
81.6151513404
 30
0.0
 11
76.5196520183
 21
83.5640178407
 31
0.0
  0
SPLINE
  5
B6
330
1F
100
AcDbEntity
  8
0
  6
Continuous
 62
     7
370
    15
100
AcDbSpline
210
0.0
220
0.0
230
1.0
 70
     8
 71
     3
 72
     8
 73
     4
 74
     0
 42
0.00000001
 43
0.00000001
 12
1.0
 22
0.0
 32
0.0
 13
1.0
 23
0.0
 33
0.0
 40
92.49188395251352
 40
92.49188395251352
 40
92.49188395251352
 40
92.49188395251352
 40
100.6312637230435
 40
100.6312637230435
 40
100.6312637230435
 40
100.6312637230435
 10
74.23949193093122
 20
81.61515134037126
 30
0.0
 10
72.54872747965678
 20
83.6523009260604
 30
0.0
 10
70.93564666932635
 20
85.75443036490647
 30
0.0
 10
69.40470678527018
 20
87.91056288816775
 30
0.0
  0
LINE
  5
B7
330
1F
100
AcDbEntity
  8
0
  6
Continuous
 62
     7
370
    15
100
AcDbLine
 10
69.4047067853
 20
87.9105628882
 30
0.0
 11
66.9586037768
 21
86.1737324209
 31
0.0
  0
SPLINE
  5
B8
330
1F
100
AcDbEntity
  8
0
  6
Continuous
 62
     7
370
    15
100
AcDbSpline
210
0.0
220
0.0
230
1.0
 70
     8
 71
     3
 72
     8
 73
     4
 74
     0
 42
0.00000001
 43
0.00000001
 12
1.0
 22
0.0
 32
0.0
 13
1.0
 23
0.0
 33
0.0
 40
301.979944608309
 40
301.979944608309
 40
301.979944608309
 40
301.979944608309
 40
332.6257538168163
 40
332.6257538168163
 40
332.6257538168163
 40
332.6257538168163
 10
52.70614134217954
 20
113.416099627882
 30
0.0
 10
56.23028074481158
 20
103.7589952571163
 30
0.0
 10
61.01728316135084
 20
94.54132068693872
 30
0.0
 10
66.95860377679922
 20
86.1737324208489
 30
0.0
  0
ARC
  5
B9
330
1F
100
AcDbEntity
  8
0
  6
Continuous
 62
     7
370
    15
100
AcDbCircle
 10
193.6052763008
 20
169.4946490137
 30
0.0
 40
10.0
100
AcDbArc
 50
0.0
 51
180.0
  0
LINE
  5
BA
330
1F
100
AcDbEntity
  8
0
  6
Continuous
 62
     7
370
    15
100
AcDbLine
 10
183.6052763008
 20
169.4946490137
 30
0.0
 11
183.6052763008
 21
144.4946490137
 31
0.0
  0
ARC
  5
BB
330
1F
100
AcDbEntity
  8
0
  6
Continuous
 62
     7
370
    15
100
AcDbCircle
 10
193.6052763008
 20
144.4946490137
 30
0.0
 40
10.0
100
AcDbArc
 50
180.0
 51
0.0
  0
LINE
  5
BC
330
1F
100
AcDbEntity
  8
0
  6
Continuous
 62
     7
370
    15
100
AcDbLine
 10
203.6052763008
 20
144.4946490137
 30
0.0
 11
203.6052763008
 21
169.4946490137
 31
0.0
  0
LINE
  5
BD
330
1F
100
AcDbEntity
  8
0
  6
Continuous
 62
     7
370
    15
100
AcDbLine
 10
208.4970258856
 20
96.4946490137
 30
0.0
 11
208.4970258856
 21
76.4946490137
 31
0.0
  0
LINE
  5
BE
330
1F
100
AcDbEntity
  8
0
  6
Continuous
 62
     7
370
    15
100
AcDbLine
 10
208.4970258856
 20
76.4946490137
 30
0.0
 11
211.5352959695
 21
76.4946490137
 31
0.0
  0
LINE
  5
BF
330
1F
100
AcDbEntity
  8
0
  6
Continuous
 62
     7
370
    15
100
AcDbLine
 10
211.5352959695
 20
76.4946490137
 30
0.0
 11
211.5352959695
 21
96.4946490137
 31
0.0
  0
LINE
  5
C0
330
1F
100
AcDbEntity
  8
0
  6
Continuous
 62
     7
370
    15
100
AcDbLine
 10
211.5352959695
 20
96.4946490137
 30
0.0
 11
208.4970258856
 21
96.4946490137
 31
0.0
  0
LINE
  5
C1
330
1F
100
AcDbEntity
  8
0
  6
Continuous
 62
     7
370
    15
100
AcDbLine
 10
94.5705152643
 20
76.4946490137
 30
0.0
 11
97.6087853482
 21
76.4946490137
 31
0.0
  0
LINE
  5
C2
330
1F
100
AcDbEntity
  8
0
  6
Continuous
 62
     7
370
    15
100
AcDbLine
 10
97.6087853482
 20
76.4946490137
 30
0.0
 11
97.6087853482
 21
96.4946490137
 31
0.0
  0
LINE
  5
C3
330
1F
100
AcDbEntity
  8
0
  6
Continuous
 62
     7
370
    15
100
AcDbLine
 10
97.6087853482
 20
96.4946490137
 30
0.0
 11
94.5705152643
 21
96.4946490137
 31
0.0
  0
LINE
  5
C4
330
1F
100
AcDbEntity
  8
0
  6
Continuous
 62
     7
370
    15
100
AcDbLine
 10
94.5705152643
 20
96.4946490137
 30
0.0
 11
94.5705152643
 21
76.4946490137
 31
0.0
  0
DIMENSION
  5
C5
330
1F
100
AcDbEntity
  8
0
  6
Continuous
 62
     7
370
     0
100
AcDbDimension
  2
_D
 10
234.6052763008
 20
185.68196333
 30
0.0
 11
153.0529056169
 21
185.68196333
 31
0.0
 70
   160
  1
<>
 71
     2
 42
-1.0
  3
SLDDIMSTYLE0
100
AcDbAlignedDimension
 13
71.5005349329
 23
194.4946490137
 33
0.0
 14
234.6052763008
 24
194.4946490137
 34
0.0
100
AcDbRotatedDimension
  0
ENDSEC
  0
SECTION
  2
OBJECTS
  0
DICTIONARY
  5
C
330
0
100
AcDbDictionary
281
     1
  3
ACAD_GROUP
350
D
  3
ACAD_LAYOUT
350
1A
  3
ACAD_MLINESTYLE
350
17
  3
ACAD_PLOTSETTINGS
350
19
  3
ACAD_PLOTSTYLENAME
350
E
  0
DICTIONARY
  5
D
102
{ACAD_REACTORS
330
C
102
}
330
C
100
AcDbDictionary
281
     1
  0
DICTIONARY
  5
1A
102
{ACAD_REACTORS
330
C
102
}
330
C
100
AcDbDictionary
281
     1
  3
Layout1
350
1E
  3
Layout2
350
26
  3
Model
350
22
  0
DICTIONARY
  5
17
102
{ACAD_REACTORS
330
C
102
}
330
C
100
AcDbDictionary
281
     1
  3
Standard
350
18
  0
DICTIONARY
  5
19
102
{ACAD_REACTORS
330
C
102
}
330
C
100
AcDbDictionary
281
     1
  0
ACDBDICTIONARYWDFLT
  5
E
102
{ACAD_REACTORS
330
C
102
}
330
C
100
AcDbDictionary
281
     1
  3
Normal
350
F
100
AcDbDictionaryWithDefault
340
F
  0
LAYOUT
  5
1E
102
{ACAD_REACTORS
330
1A
102
}
330
1A
100
AcDbPlotSettings
  1

  2
none_device
  4

  6

 40
0.0
 41
0.0
 42
0.0
 43
0.0
 44
0.0
 45
0.0
 46
0.0
 47
0.0
 48
0.0
 49
0.0
140
0.0
141
0.0
142
1.0
143
1.0
 70
   688
 72
     0
 73
     0
 74
     5
  7

 75
    16
147
1.0
148
0.0
149
0.0
100
AcDbLayout
  1
Layout1
 70
     1
 71
     1
 10
0.0
 20
0.0
 11
420.0
 21
297.0
 12
0.0
 22
0.0
 32
0.0
 14
1.0000000000E+20
 24
1.0000000000E+20
 34
1.0000000000E+20
 15
-1.0000000000E+20
 25
-1.0000000000E+20
 35
-1.0000000000E+20
146
0.0
 13
0.0
 23
0.0
 33
0.0
 16
1.0
 26
0.0
 36
0.0
 17
0.0
 27
1.0
 37
0.0
 76
     0
330
1B
  0
LAYOUT
  5
26
102
{ACAD_REACTORS
330
1A
102
}
330
1A
100
AcDbPlotSettings
  1

  2
none_device
  4

  6

 40
0.0
 41
0.0
 42
0.0
 43
0.0
 44
0.0
 45
0.0
 46
0.0
 47
0.0
 48
0.0
 49
0.0
140
0.0
141
0.0
142
1.0
143
1.0
 70
   688
 72
     0
 73
     0
 74
     5
  7

 75
    16
147
1.0
148
0.0
149
0.0
100
AcDbLayout
  1
Layout2
 70
     1
 71
     2
 10
0.0
 20
0.0
 11
0.0
 21
0.0
 12
0.0
 22
0.0
 32
0.0
 14
0.0
 24
0.0
 34
0.0
 15
0.0
 25
0.0
 35
0.0
146
0.0
 13
0.0
 23
0.0
 33
0.0
 16
1.0
 26
0.0
 36
0.0
 17
0.0
 27
1.0
 37
0.0
 76
     0
330
23
  0
LAYOUT
  5
22
102
{ACAD_REACTORS
330
1A
102
}
330
1A
100
AcDbPlotSettings
  1

  2
none_device
  4

  6

 40
0.0
 41
0.0
 42
0.0
 43
0.0
 44
0.0
 45
0.0
 46
0.0
 47
0.0
 48
0.0
 49
0.0
140
0.0
141
0.0
142
1.0
143
1.0
 70
  1712
 72
     0
 73
     0
 74
     0
  7

 75
     0
147
1.0
148
0.0
149
0.0
100
AcDbLayout
  1
Model
 70
     1
 71
     0
 10
0.0
 20
0.0
 11
297.0
 21
420.0
 12
0.0
 22
0.0
 32
0.0
 14
0.0
 24
0.0
 34
0.0
 15
297.0
 25
420.0
 35
0.0
146
0.0
 13
0.0
 23
0.0
 33
0.0
 16
1.0
 26
0.0
 36
0.0
 17
0.0
 27
1.0
 37
0.0
 76
     0
330
1F
331
29
  0
MLINESTYLE
  5
18
102
{ACAD_REACTORS
330
17
102
}
330
17
100
AcDbMlineStyle
  2
Standard
 70
     0
  3

 62
   256
 51
90.0
 52
90.0
 71
     2
 49
0.5
 62
   256
  6
BYLAYER
 49
-0.5
 62
   256
  6
BYLAYER
  0
ACDBPLACEHOLDER
  5
F
102
{ACAD_REACTORS
330
E
102
}
330
E
  0
ENDSEC
  0
EOF
