  0
SECTION
  2
HEADER
  9
$ACADVER
  1
AC1015
  9
$ACADMAINTVER
 70
     6
  9
$DWGCODEPAGE
  3
ANSI_1252
  9
$INSBASE
 10
0.0
 20
0.0
 30
0.0
  9
$EXTMIN
 10
0.0
 20
0.0
 30
0.0
  9
$EXTMAX
 10
297.0
 20
420.0
 30
0.0
  9
$LIMMIN
 10
0.0
 20
0.0
  9
$LIMMAX
 10
297.0
 20
420.0
  9
$ORTHOMODE
 70
     0
  9
$REGENMODE
 70
     1
  9
$FILLMODE
 70
     1
  9
$QTEXTMODE
 70
     0
  9
$MIRRTEXT
 70
     1
  9
$LTSCALE
 40
1.0
  9
$ATTMODE
 70
     1
  9
$TEXTSIZE
 40
2.5
  9
$TRACEWID
 40
1.0
  9
$TEXTSTYLE
  7
Standard
  9
$CLAYER
  8
0
  9
$CELTYPE
  6
ByLayer
  9
$CECOLOR
 62
   256
  9
$CELTSCALE
 40
1.0
  9
$DISPSILH
 70
     0
  9
$DIMSCALE
 40
1.0
  9
$DIMASZ
 40
4.0
  9
$DIMEXO
 40
1.0
  9
$DIMDLI
 40
3.75
  9
$DIMRND
 40
0.0
  9
$DIMDLE
 40
0.0
  9
$DIMEXE
 40
1.0
  9
$DIMTP
 40
0.0
  9
$DIMTM
 40
0.0
  9
$DIMTXT
 40
2.5
  9
$DIMCEN
 40
2.5
  9
$DIMTSZ
 40
0.0
  9
$DIMTOL
 70
     0
  9
$DIMLIM
 70
     0
  9
$DIMTIH
 70
     1
  9
$DIMTOH
 70
     1
  9
$DIMSE1
 70
     0
  9
$DIMSE2
 70
     0
  9
$DIMTAD
 70
     1
  9
$DIMZIN
 70
     0
  9
$DIMBLK
  1

  9
$DIMASO
 70
     1
  9
$DIMSHO
 70
     1
  9
$DIMPOST
  1

  9
$DIMAPOST
  1

  9
$DIMALT
 70
     0
  9
$DIMALTD
 70
     3
  9
$DIMALTF
 40
0.0393700787
  9
$DIMLFAC
 40
2.0
  9
$DIMTOFL
 70
     1
  9
$DIMTVP
 40
0.0
  9
$DIMTIX
 70
     0
  9
$DIMSOXD
 70
     0
  9
$DIMSAH
 70
     0
  9
$DIMBLK1
  1

  9
$DIMBLK2
  1

  9
$DIMSTYLE
  2
ISO-25
  9
$DIMCLRD
 70
     0
  9
$DIMCLRE
 70
     0
  9
$DIMCLRT
 70
     0
  9
$DIMTFAC
 40
1.0
  9
$DIMGAP
 40
1.524
  9
$DIMJUST
 70
     0
  9
$DIMSD1
 70
     0
  9
$DIMSD2
 70
     0
  9
$DIMTOLJ
 70
     0
  9
$DIMTZIN
 70
     0
  9
$DIMALTZ
 70
     0
  9
$DIMALTTZ
 70
     0
  9
$DIMUPT
 70
     0
  9
$DIMDEC
 70
     2
  9
$DIMTDEC
 70
     2
  9
$DIMALTU
 70
     2
  9
$DIMALTTD
 70
     3
  9
$DIMTXSTY
  7
Standard
  9
$DIMAUNIT
 70
     0
  9
$DIMADEC
 70
     2
  9
$DIMALTRND
 40
0.0
  9
$DIMAZIN
 70
     0
  9
$DIMDSEP
 70
    44
  9
$DIMATFIT
 70
     3
  9
$DIMFRAC
 70
     0
  9
$DIMLDRBLK
  1

  9
$DIMLUNIT
 70
     2
  9
$DIMLWD
 70
    -2
  9
$DIMLWE
 70
    -2
  9
$DIMTMOVE
 70
     0
  9
$LUNITS
 70
     2
  9
$LUPREC
 70
     2
  9
$SKETCHINC
 40
1.0
  9
$FILLETRAD
 40
10.0
  9
$AUNITS
 70
     0
  9
$AUPREC
 70
     2
  9
$MENU
  1
.
  9
$ELEVATION
 40
0.0
  9
$PELEVATION
 40
0.0
  9
$THICKNESS
 40
0.0
  9
$LIMCHECK
 70
     0
  9
$CHAMFERA
 40
10.0
  9
$CHAMFERB
 40
10.0
  9
$CHAMFERC
 40
20.0
  9
$CHAMFERD
 40
0.0
  9
$SKPOLY
 70
     0
  9
$TDCREATE
 40
2456917.91832956
  9
$TDUCREATE
 40
2456917.834996227
  9
$TDUPDATE
 40
2456917.918329908
  9
$TDUUPDATE
 40
2456917.834996574
  9
$TDINDWG
 40
0.0000000116
  9
$TDUSRTIMER
 40
0.0000000116
  9
$USRTIMER
 70
     1
  9
$ANGBASE
 50
0.0
  9
$ANGDIR
 70
     0
  9
$PDMODE
 70
     0
  9
$PDSIZE
 40
-1.0
  9
$PLINEWID
 40
0.0
  9
$SPLFRAME
 70
     0
  9
$SPLINETYPE
 70
     6
  9
$SPLINESEGS
 70
     8
  9
$HANDSEED
  5
BE
  9
$SURFTAB1
 70
     6
  9
$SURFTAB2
 70
     6
  9
$SURFTYPE
 70
     6
  9
$SURFU
 70
     6
  9
$SURFV
 70
     6
  9
$UCSBASE
  2

  9
$UCSNAME
  2

  9
$UCSORG
 10
0.0
 20
0.0
 30
0.0
  9
$UCSXDIR
 10
1.0
 20
0.0
 30
0.0
  9
$UCSYDIR
 10
0.0
 20
1.0
 30
0.0
  9
$UCSORTHOREF
  2

  9
$UCSORTHOVIEW
 70
     0
  9
$UCSORGTOP
 10
0.0
 20
0.0
 30
0.0
  9
$UCSORGBOTTOM
 10
0.0
 20
0.0
 30
0.0
  9
$UCSORGLEFT
 10
0.0
 20
0.0
 30
0.0
  9
$UCSORGRIGHT
 10
0.0
 20
0.0
 30
0.0
  9
$UCSORGFRONT
 10
0.0
 20
0.0
 30
0.0
  9
$UCSORGBACK
 10
0.0
 20
0.0
 30
0.0
  9
$PUCSBASE
  2

  9
$PUCSNAME
  2

  9
$PUCSORG
 10
0.0
 20
0.0
 30
0.0
  9
$PUCSXDIR
 10
1.0
 20
0.0
 30
0.0
  9
$PUCSYDIR
 10
0.0
 20
1.0
 30
0.0
  9
$PUCSORTHOREF
  2

  9
$PUCSORTHOVIEW
 70
     0
  9
$PUCSORGTOP
 10
0.0
 20
0.0
 30
0.0
  9
$PUCSORGBOTTOM
 10
0.0
 20
0.0
 30
0.0
  9
$PUCSORGLEFT
 10
0.0
 20
0.0
 30
0.0
  9
$PUCSORGRIGHT
 10
0.0
 20
0.0
 30
0.0
  9
$PUCSORGFRONT
 10
0.0
 20
0.0
 30
0.0
  9
$PUCSORGBACK
 10
0.0
 20
0.0
 30
0.0
  9
$USERI1
 70
     0
  9
$USERI2
 70
     0
  9
$USERI3
 70
     0
  9
$USERI4
 70
     0
  9
$USERI5
 70
     0
  9
$USERR1
 40
0.0
  9
$USERR2
 40
0.0
  9
$USERR3
 40
0.0
  9
$USERR4
 40
0.0
  9
$USERR5
 40
0.0
  9
$WORLDVIEW
 70
     1
  9
$SHADEDGE
 70
     3
  9
$SHADEDIF
 70
    70
  9
$TILEMODE
 70
     1
  9
$MAXACTVP
 70
    64
  9
$PINSBASE
 10
0.0
 20
0.0
 30
0.0
  9
$PLIMCHECK
 70
     0
  9
$PEXTMIN
 10
1.0000000000E+20
 20
1.0000000000E+20
 30
1.0000000000E+20
  9
$PEXTMAX
 10
-1.0000000000E+20
 20
-1.0000000000E+20
 30
-1.0000000000E+20
  9
$PLIMMIN
 10
0.0
 20
0.0
  9
$PLIMMAX
 10
420.0
 20
297.0
  9
$UNITMODE
 70
     0
  9
$VISRETAIN
 70
     1
  9
$PLINEGEN
 70
     0
  9
$PSLTSCALE
 70
     1
  9
$TREEDEPTH
 70
  3020
  9
$CMLSTYLE
  2
Standard
  9
$CMLJUST
 70
     0
  9
$CMLSCALE
 40
20.0
  9
$PROXYGRAPHICS
 70
     1
  9
$MEASUREMENT
 70
     1
  9
$CELWEIGHT
370
    -1
  9
$ENDCAPS
280
     0
  9
$JOINSTYLE
280
     0
  9
$LWDISPLAY
290
     1
  9
$INSUNITS
 70
     4
  9
$HYPERLINKBASE
  1

  9
$STYLESHEET
  1

  9
$XEDIT
290
     1
  9
$CEPSNTYPE
380
     0
  9
$PSTYLEMODE
290
     1
  9
$FINGERPRINTGUID
  2
{8A3FB9F9-5809-41DE-B976-A4CAD2D98524}
  9
$VERSIONGUID
  2
{FAEB1C32-E019-11D5-929B-00C0DF256EC4}
  9
$EXTNAMES
290
     1
  9
$PSVPSCALE
 40
0.0
  9
$OLESTARTUP
290
     0
  0
ENDSEC
  0
SECTION
  2
CLASSES
  0
CLASS
  1
ACDBDICTIONARYWDFLT
  2
AcDbDictionaryWithDefault
  3
ObjectDBX Classes
 90
        0
280
     0
281
     0
  0
CLASS
  1
VISUALSTYLE
  2
AcDbVisualStyle
  3
ObjectDBX Classes
 90
     4095
280
     0
281
     0
  0
CLASS
  1
MATERIAL
  2
AcDbMaterial
  3
ObjectDBX Classes
 90
     1153
280
     0
281
     0
  0
CLASS
  1
ACDBPLACEHOLDER
  2
AcDbPlaceHolder
  3
ObjectDBX Classes
 90
        0
280
     0
281
     0
  0
CLASS
  1
LAYOUT
  2
AcDbLayout
  3
ObjectDBX Classes
 90
        0
280
     0
281
     0
  0
ENDSEC
  0
SECTION
  2
TABLES
  0
TABLE
  2
VPORT
  5
8
330
0
100
AcDbSymbolTable
 70
     1
  0
VPORT
  5
29
330
8
100
AcDbSymbolTableRecord
100
AcDbViewportTableRecord
  2
*Active
 70
     0
 10
0.0
 20
0.0
 11
1.0
 21
1.0
 12
148.5
 22
210.0
 13
0.0
 23
0.0
 14
10.0
 24
10.0
 15
10.0
 25
10.0
 16
0.0
 26
0.0
 36
1.0
 17
0.0
 27
0.0
 37
0.0
 40
420.0
 41
0.7071428571
 42
50.0
 43
0.0
 44
0.0
 50
0.0
 51
0.0
 71
     0
 72
  2000
 73
     1
 74
     3
 75
     0
 76
     0
 77
     0
 78
     0
281
     0
 65
     1
110
0.0
120
0.0
130
0.0
111
1.0
121
0.0
131
0.0
112
0.0
122
1.0
132
0.0
 79
     0
146
0.0
  0
ENDTAB
  0
TABLE
  2
LTYPE
  5
5
330
0
100
AcDbSymbolTable
 70
     6
  0
LTYPE
  5
14
330
5
100
AcDbSymbolTableRecord
100
AcDbLinetypeTableRecord
  2
ByBlock
 70
     0
  3

 72
    65
 73
     0
 40
0.0
  0
LTYPE
  5
15
330
5
100
AcDbSymbolTableRecord
100
AcDbLinetypeTableRecord
  2
ByLayer
 70
     0
  3

 72
    65
 73
     0
 40
0.0
  0
LTYPE
  5
16
330
5
100
AcDbSymbolTableRecord
100
AcDbLinetypeTableRecord
  2
Continuous
 70
     0
  3
Solid line
 72
    65
 73
     0
 40
0.0
  0
LTYPE
  5
3F
330
5
100
AcDbSymbolTableRecord
100
AcDbLinetypeTableRecord
  2
HIDDEN
 70
     0
  3
Hidden __ __ __ __ __ __ __ __ __ __ __ __ __ __
 72
    65
 73
     2
 40
1.905
 49
1.27
 74
     0
 49
-0.635
 74
     0
  0
LTYPE
  5
40
330
5
100
AcDbSymbolTableRecord
100
AcDbLinetypeTableRecord
  2
PHANTOM
 70
     0
  3
Phantom ______  __  __  ______  __  __  ______
 72
    65
 73
     6
 40
12.7
 49
6.35
 74
     0
 49
-1.27
 74
     0
 49
1.27
 74
     0
 49
-1.27
 74
     0
 49
1.27
 74
     0
 49
-1.27
 74
     0
  0
LTYPE
  5
41
330
5
100
AcDbSymbolTableRecord
100
AcDbLinetypeTableRecord
  2
CENTER
 70
     0
  3
Center ____ _ ____ _ ____ _ ____ _ ____ _ ____
 72
    65
 73
     4
 40
10.16
 49
6.35
 74
     0
 49
-1.27
 74
     0
 49
1.27
 74
     0
 49
-1.27
 74
     0
  0
LTYPE
  5
42
330
5
100
AcDbSymbolTableRecord
100
AcDbLinetypeTableRecord
  2
CENTERX2
 70
     0
  3
Center (2x) ________  __  ________  __  _____
 72
    65
 73
     4
 40
20.32
 49
12.7
 74
     0
 49
-2.54
 74
     0
 49
2.54
 74
     0
 49
-2.54
 74
     0
  0
LTYPE
  5
43
330
5
100
AcDbSymbolTableRecord
100
AcDbLinetypeTableRecord
  2
DOT2
 70
     0
  3
Dot (.5x) ........................................
 72
    65
 73
     2
 40
0.635
 49
0.0
 74
     0
 49
-0.635
 74
     0
  0
ENDTAB
  0
TABLE
  2
LAYER
  5
2
330
0
100
AcDbSymbolTable
 70
     2
  0
LAYER
  5
10
330
2
100
AcDbSymbolTableRecord
100
AcDbLayerTableRecord
  2
0
 70
     0
 62
     7
  6
Continuous
370
    -3
390
F
  0
LAYER
  5
44
330
2
100
AcDbSymbolTableRecord
100
AcDbLayerTableRecord
  2
SLD-0
 70
     0
 62
   179
  6
Continuous
370
    -3
390
F
  0
ENDTAB
  0
TABLE
  2
STYLE
  5
3
330
0
100
AcDbSymbolTable
 70
     3
  0
STYLE
  5
11
330
3
100
AcDbSymbolTableRecord
100
AcDbTextStyleTableRecord
  2
Standard
 70
     0
 40
0.0
 41
1.0
 50
0.0
 71
     0
 42
2.5
  3
txt
  4

  0
STYLE
  5
45
330
3
100
AcDbSymbolTableRecord
100
AcDbTextStyleTableRecord
  2
SLDTEXTSTYLE0
 70
     0
 40
0.0
 41
0.563
 50
0.0
 71
     0
 42
0.2
  3
TXT
  4

  0
STYLE
  5
B3
330
3
100
AcDbSymbolTableRecord
100
AcDbTextStyleTableRecord
  2
SLDTEXTSTYLE1
 70
     0
 40
0.0
 41
0.605
 50
0.0
 71
     0
 42
0.2
  3
TXT
  4

  0
ENDTAB
  0
TABLE
  2
VIEW
  5
6
330
0
100
AcDbSymbolTable
 70
     0
  0
ENDTAB
  0
TABLE
  2
UCS
  5
7
330
0
100
AcDbSymbolTable
 70
     0
  0
ENDTAB
  0
TABLE
  2
APPID
  5
9
330
0
100
AcDbSymbolTable
 70
     1
  0
APPID
  5
12
330
9
100
AcDbSymbolTableRecord
100
AcDbRegAppTableRecord
  2
ACAD
 70
     0
  0
ENDTAB
  0
TABLE
  2
DIMSTYLE
  5
A
330
0
100
AcDbSymbolTable
 70
     2
100
AcDbDimStyleTable
  0
DIMSTYLE
105
27
330
A
100
AcDbSymbolTableRecord
100
AcDbDimStyleTableRecord
  2
ISO-25
 70
     0
 41
2.5
 42
0.625
 43
3.75
 44
1.25
 73
     0
 74
     0
 77
     1
 78
     8
140
2.5
141
2.5
143
0.0393700787
147
0.625
171
     3
172
     1
178
     0
271
     2
272
     2
274
     3
278
    44
283
     0
284
     8
340
11
  0
DIMSTYLE
105
B4
102
{ACAD_REACTORS
330
B2
102
}
330
A
100
AcDbSymbolTableRecord
100
AcDbDimStyleTableRecord
  2
SLDDIMSTYLE0
 70
     0
 41
4.0
 44
0.0
 45
0.000000001
 73
     0
 74
     0
 77
     1
 78
    12
 79
     3
140
2.5
147
0.625
173
     1
178
     0
271
     0
272
     2
276
     2
284
    12
340
B3
  0
ENDTAB
  0
TABLE
  2
BLOCK_RECORD
  5
1
330
0
100
AcDbSymbolTable
 70
     2
  0
BLOCK_RECORD
  5
1F
330
1
100
AcDbSymbolTableRecord
100
AcDbBlockTableRecord
  2
*Model_Space
340
22
  0
BLOCK_RECORD
  5
1B
330
1
100
AcDbSymbolTableRecord
100
AcDbBlockTableRecord
  2
*Paper_Space
340
1E
  0
BLOCK_RECORD
  5
23
330
1
100
AcDbSymbolTableRecord
100
AcDbBlockTableRecord
  2
*Paper_Space0
340
26
  0
BLOCK_RECORD
  5
B5
330
1
100
AcDbSymbolTableRecord
100
AcDbBlockTableRecord
  2
_D
340
0
  0
ENDTAB
  0
ENDSEC
  0
SECTION
  2
BLOCKS
  0
BLOCK
  5
20
330
1F
100
AcDbEntity
  8
0
100
AcDbBlockBegin
  2
*Model_Space
 70
     0
 10
0.0
 20
0.0
 30
0.0
  3
*Model_Space
  1

  0
ENDBLK
  5
21
330
1F
100
AcDbEntity
  8
0
100
AcDbBlockEnd
  0
BLOCK
  5
1C
330
1B
100
AcDbEntity
 67
     1
  8
0
100
AcDbBlockBegin
  2
*Paper_Space
 70
     0
 10
0.0
 20
0.0
 30
0.0
  3
*Paper_Space
  1

  0
ENDBLK
  5
1D
330
1B
100
AcDbEntity
 67
     1
  8
0
100
AcDbBlockEnd
  0
BLOCK
  5
24
330
23
100
AcDbEntity
  8
0
100
AcDbBlockBegin
  2
*Paper_Space0
 70
     0
 10
0.0
 20
0.0
 30
0.0
  3
*Paper_Space0
  1

  0
ENDBLK
  5
25
330
23
100
AcDbEntity
  8
0
100
AcDbBlockEnd
  0
BLOCK
  5
B6
330
B5
100
AcDbEntity
  8
0
100
AcDbBlockBegin
  2
_D
 70
     0
 10
0.0
 20
0.0
 30
0.0
  3
_D
  1

  0
SOLID
  5
B8
330
B5
100
AcDbEntity
  8
0
  6
Continuous
 62
     7
370
     0
100
AcDbTrace
 10
219.955366914
 20
158.0542546394
 30
0.0
 11
215.955366914
 21
158.6542546394
 31
0.0
 12
215.955366914
 22
157.4542546394
 32
0.0
 13
215.955366914
 23
157.4542546394
 33
0.0
  0
SOLID
  5
B9
330
B5
100
AcDbEntity
  8
0
  6
Continuous
 62
     7
370
     0
100
AcDbTrace
 10
73.8084673921
 20
158.0542546394
 30
0.0
 11
77.8084673921
 21
157.4542546394
 31
0.0
 12
77.8084673921
 22
158.6542546394
 32
0.0
 13
77.8084673921
 23
158.6542546394
 33
0.0
  0
LINE
  5
BA
330
B5
100
AcDbEntity
  8
0
  6
Continuous
 62
     7
370
     0
100
AcDbLine
 10
219.955366914
 20
177.0478889266
 30
0.0
 11
219.955366914
 21
157.0542546394
 31
0.0
  0
LINE
  5
BB
330
B5
100
AcDbEntity
  8
0
  6
Continuous
 62
     7
370
     0
100
AcDbLine
 10
73.8084673921
 20
177.0478889266
 30
0.0
 11
73.8084673921
 21
157.0542546394
 31
0.0
  0
LINE
  5
BC
330
B5
100
AcDbEntity
  8
0
  6
Continuous
 62
     7
370
     0
100
AcDbLine
 10
219.955366914
 20
158.0542546394
 30
0.0
 11
73.8084673921
 21
158.0542546394
 31
0.0
  0
MTEXT
  5
BD
330
B5
100
AcDbEntity
  8
0
  6
Continuous
 62
     7
370
     0
100
AcDbMText
 10
142.8715005857
 20
161.2769238142
 30
-1.4
 40
2.5
 41
0.0
 71
     1
 72
     1
  1
146
  7
SLDTEXTSTYLE1
 73
     1
 44
1.0
  0
ENDBLK
  5
B7
330
B5
100
AcDbEntity
  8
0
100
AcDbBlockEnd
  0
ENDSEC
  0
SECTION
  2
ENTITIES
  0
MTEXT
  5
46
330
1F
100
AcDbEntity
  8
0
  6
Continuous
 62
     7
370
     0
100
AcDbMText
 10
215.1552559959
 20
395.1435015483
 30
0.0
 40
10.0
 41
0.0
 71
     1
 72
     1
  1
F8   CTP 3
  7
SLDTEXTSTYLE0
 73
     1
 44
1.0
  0
ARC
  5
47
330
1F
100
AcDbEntity
  8
0
  6
Continuous
 62
     7
370
    15
100
AcDbCircle
 10
146.881917153
 20
296.5024335373
 30
0.0
 40
25.00000000000141
100
AcDbArc
 50
29.3269094909
 51
150.6730905091
  0
SPLINE
  5
48
330
1F
100
AcDbEntity
  8
0
  6
Continuous
 62
     7
370
    15
100
AcDbSpline
210
0.0
220
0.0
230
1.0
 70
     8
 71
     3
 72
    24
 73
    20
 74
     0
 42
0.00000001
 43
0.00000001
 12
1.0
 22
0.0
 32
0.0
 13
1.0
 23
0.0
 33
0.0
 40
244.4441046344396
 40
244.4441046344396
 40
244.4441046344396
 40
244.4441046344396
 40
248.7884040393698
 40
248.7884040393698
 40
254.7200185981619
 40
254.7200185981619
 40
262.252441153754
 40
262.252441153754
 40
281.1279011547335
 40
281.1279011547335
 40
290.5656311552232
 40
290.5656311552232
 40
300.003361155713
 40
300.003361155713
 40
324.0622134299778
 40
324.0622134299778
 40
336.0916395671102
 40
336.0916395671102
 40
347.9956551476371
 40
347.9956551476371
 40
347.9956551476371
 40
347.9956551476371
 10
125.0859338209757
 20
308.7472328655389
 30
0.0
 10
124.4159336268425
 20
307.5546193589977
 30
0.0
 10
123.7525005675711
 20
306.3553718817851
 30
0.0
 10
122.1978282646142
 20
303.503672650973
 30
0.0
 10
121.3119232169212
 20
301.8457311341123
 30
0.0
 10
119.3248396132224
 20
298.0572136592003
 30
0.0
 10
118.2300888115197
 20
295.9198373418654
 30
0.0
 10
114.4439334287803
 20
288.3691711763399
 30
0.0
 10
111.8308477276805
 20
282.8695872131905
 30
0.0
 10
107.9994989354784
 20
274.5049511063559
 30
0.0
 10
106.7370688800671
 20
271.697548893069
 30
0.0
 10
104.2326635059079
 20
266.0509753589572
 30
0.0
 10
102.9931131025841
 20
263.2189367720265
 30
0.0
 10
98.65504333504866
 20
253.164910245547
 30
0.0
 10
95.64475417161441
 20
245.9219910167528
 30
0.0
 10
91.31735578541844
 20
235.0140033303046
 30
0.0
 10
89.90622328467556
 20
231.3707376374167
 30
0.0
 10
87.16587573729342
 20
224.1058432562549
 30
0.0
 10
85.83425593779685
 20
220.4814743050082
 30
0.0
 10
84.54352071705034
 20
216.8584320781424
 30
0.0
  0
ARC
  5
49
330
1F
100
AcDbEntity
  8
0
  6
Continuous
 62
     7
370
    15
100
AcDbCircle
 10
159.9039886324
 20
190.0107156842
 30
0.0
 40
79.99999999999966
100
AcDbArc
 50
160.3911878661
 51
179.9733766252
  0
LINE
  5
4A
330
1F
100
AcDbEntity
  8
0
  6
Continuous
 62
     7
370
    15
100
AcDbLine
 10
79.903999005
 20
190.0478888249
 30
0.0
 11
73.8084704024
 21
190.0478888249
 31
0.0
  0
LINE
  5
4B
330
1F
100
AcDbEntity
  8
0
  6
Continuous
 62
     7
370
    15
100
AcDbLine
 10
73.8084704024
 20
190.0478888249
 30
0.0
 11
73.8084704024
 21
178.0478905833
 31
0.0
  0
LINE
  5
4C
330
1F
100
AcDbEntity
  8
0
  6
Continuous
 62
     7
370
    15
100
AcDbLine
 10
73.8084704024
 20
178.0478905833
 30
0.0
 11
79.9039915544
 21
178.0478905833
 31
0.0
  0
LINE
  5
4D
330
1F
100
AcDbEntity
  8
0
  6
Continuous
 62
     7
370
    15
100
AcDbLine
 10
79.9039915544
 20
178.0478905833
 30
0.0
 11
79.9039915544
 21
175.9544487989
 31
0.0
  0
ARC
  5
4E
330
1F
100
AcDbEntity
  8
0
  6
Continuous
 62
     7
370
    15
100
AcDbCircle
 10
69.9039886325
 20
175.9544488411
 30
0.0
 40
9.999999999999883
100
AcDbArc
 50
296.449409063
 51
0.0
  0
ARC
  5
4F
330
1F
100
AcDbEntity
  8
0
  6
Continuous
 62
     7
370
    15
100
AcDbCircle
 10
78.8121372633
 20
158.0478889266
 30
0.0
 40
10.00000000000211
100
AcDbArc
 50
116.449409063
 51
171.1683748402
  0
SPLINE
  5
50
330
1F
100
AcDbEntity
  8
0
  6
Continuous
 62
     7
370
    15
100
AcDbSpline
210
0.0
220
0.0
230
1.0
 70
     8
 71
     3
 72
    38
 73
    34
 74
     0
 42
0.00000001
 43
0.00000001
 12
1.0
 22
0.0
 32
0.0
 13
1.0
 23
0.0
 33
0.0
 40
0.0
 40
0.0
 40
0.0
 40
0.0
 40
10.96222382660315
 40
10.96222382660315
 40
20.77080294498109
 40
20.77080294498109
 40
30.57938206335902
 40
30.57938206335902
 40
45.35636400547077
 40
45.35636400547077
 40
54.17718995639908
 40
54.17718995639908
 40
62.99801590732739
 40
62.99801590732739
 40
72.34633588606549
 40
72.34633588606549
 40
85.79691240376317
 40
85.79691240376317
 40
92.52220066261202
 40
92.52220066261202
 40
99.24748892146086
 40
99.24748892146086
 40
108.3698707148404
 40
108.3698707148404
 40
124.5198355853334
 40
124.5198355853334
 40
138.8127834982938
 40
138.8127834982938
 40
153.1057314112541
 40
153.1057314112541
 40
167.3986793242145
 40
167.3986793242145
 40
181.6916272371748
 40
181.6916272371748
 40
181.6916272371748
 40
181.6916272371748
 10
68.93069937964576
 20
159.5832017127908
 30
0.0
 10
68.42199049265325
 20
156.3090967141399
 30
0.0
 10
68.01417673349718
 20
153.0602310871838
 30
0.0
 10
67.46517477561146
 20
146.9582734513051
 30
0.0
 10
67.3000455282174
 20
144.099266063958
 30
0.0
 10
67.17941337168419
 20
138.4260724140545
 30
0.0
 10
67.22402216859126
 20
135.5997892082075
 30
0.0
 10
67.61250993601871
 20
128.5682710478467
 30
0.0
 10
68.09675630868162
 20
124.3942387291608
 30
0.0
 10
69.2933347614058
 20
117.8915058613391
 30
0.0
 10
69.8349444612912
 20
115.497004372098
 30
0.0
 10
71.11181715203475
 20
110.7978952657852
 30
0.0
 10
71.84575092924352
 20
108.4994387923358
 30
0.0
 10
73.57629450263009
 20
103.8160580023829
 30
0.0
 10
74.58309332744113
 20
101.4405041424057
 30
0.0
 10
77.30559711477248
 20
95.76529541776313
 30
0.0
 10
79.1386596007875
 20
92.5177130824565
 30
0.0
 10
82.19238681809212
 20
87.86013876944125
 30
0.0
 10
83.26092187324616
 20
86.34321837654107
 30
0.0
 10
85.49256840328556
 20
83.39055929893387
 30
0.0
 10
86.65410445437416
 20
81.95680304763984
 30
0.0
 10
89.504219536959
 20
78.6727642968752
 30
0.0
 10
91.23469420566538
 20
76.85368387806868
 30
0.0
 10
96.26087058590468
 20
72.02177746070952
 30
0.0
 10
99.73572946224519
 20
69.1687858613151
 30
0.0
 10
106.7096190556152
 20
64.27796867053736
 30
0.0
 10
110.1597963096835
 20
62.18429849507528
 30
0.0
 10
117.3523065907816
 20
58.43625730243684
 30
0.0
 10
121.0543043119446
 20
56.80347007185541
 30
0.0
 10
128.5051114699432
 20
54.13900691887527
 30
0.0
 10
132.2548145604544
 20
53.10669936853862
 30
0.0
 10
139.6621579490819
 20
51.71764179122412
 30
0.0
 10
143.3181277339398
 20
51.36033262261419
 30
0.0
 10
146.8819171530164
 20
51.36033262261424
 30
0.0
  0
SPLINE
  5
51
330
1F
100
AcDbEntity
  8
0
  6
Continuous
 62
     7
370
    15
100
AcDbSpline
210
0.0
220
0.0
230
1.0
 70
     8
 71
     3
 72
    38
 73
    34
 74
     0
 42
0.00000001
 43
0.00000001
 12
1.0
 22
0.0
 32
0.0
 13
1.0
 23
0.0
 33
0.0
 40
0.0
 40
0.0
 40
0.0
 40
0.0
 40
14.29294791296035
 40
14.29294791296035
 40
28.58589582592071
 40
28.58589582592071
 40
42.87884373888106
 40
42.87884373888106
 40
57.17179165184142
 40
57.17179165184142
 40
73.3217565223344
 40
73.3217565223344
 40
82.44413831571397
 40
82.44413831571397
 40
89.1694265745628
 40
89.1694265745628
 40
95.89471483341165
 40
95.89471483341165
 40
109.3452913511093
 40
109.3452913511093
 40
118.6936113298474
 40
118.6936113298474
 40
127.5144372807758
 40
127.5144372807758
 40
136.3352632317041
 40
136.3352632317041
 40
151.1122451738158
 40
151.1122451738158
 40
160.9208242921937
 40
160.9208242921937
 40
170.7294034105717
 40
170.7294034105717
 40
181.6916272371748
 40
181.6916272371748
 40
181.6916272371748
 40
181.6916272371748
 10
146.8819171530164
 20
51.36033262261424
 30
0.0
 10
150.4457065720929
 20
51.36033262261424
 30
0.0
 10
154.1016763569509
 20
51.71764179122423
 30
0.0
 10
161.5090197455783
 20
53.10669936853843
 30
0.0
 10
165.2587228360895
 20
54.13900691887513
 30
0.0
 10
172.7095299940872
 20
56.80347007185538
 30
0.0
 10
176.4115277152501
 20
58.43625730243687
 30
0.0
 10
183.6040379963482
 20
62.18429849507542
 30
0.0
 10
187.0542152504165
 20
64.27796867053759
 30
0.0
 10
194.0281048437855
 20
69.16878586131543
 30
0.0
 10
197.502963720126
 20
72.02177746070991
 30
0.0
 10
202.5291401003661
 20
76.85368387806915
 30
0.0
 10
204.2596147690724
 20
78.67276429687568
 30
0.0
 10
207.1097298516572
 20
81.95680304764036
 30
0.0
 10
208.2712659027458
 20
83.390559298934
 30
0.0
 10
210.5029124327852
 20
86.34321837654166
 30
0.0
 10
211.5714474879401
 20
87.86013876944187
 30
0.0
 10
214.6251747052437
 20
92.51771308245716
 30
0.0
 10
216.4582371912596
 20
95.76529541776382
 30
0.0
 10
219.1807409785908
 20
101.4405041424064
 30
0.0
 10
220.1875398034018
 20
103.8160580023836
 30
0.0
 10
221.9180833767875
 20
108.4994387923365
 30
0.0
 10
222.6520171539971
 20
110.797895265786
 30
0.0
 10
223.9288898447397
 20
115.4970043720988
 30
0.0
 10
224.4704995446241
 20
117.8915058613399
 30
0.0
 10
225.6670779973491
 20
124.3942387291617
 30
0.0
 10
226.1513243700119
 20
128.5682710478475
 30
0.0
 10
226.5398121374393
 20
135.5997892082084
 30
0.0
 10
226.5844209343454
 20
138.4260724140554
 30
0.0
 10
226.463788777813
 20
144.0992660639589
 30
0.0
 10
226.2986595304198
 20
146.958273451306
 30
0.0
 10
225.7496575725339
 20
153.0602310871847
 30
0.0
 10
225.3418438133769
 20
156.3090967141407
 30
0.0
 10
224.8331349263852
 20
159.5832017127916
 30
0.0
  0
ARC
  5
52
330
1F
100
AcDbEntity
  8
0
  6
Continuous
 62
     7
370
    15
100
AcDbCircle
 10
214.9516970427
 20
158.0478889266
 30
0.0
 40
10.00000000000211
100
AcDbArc
 50
8.8316251598
 51
63.550590937
  0
ARC
  5
53
330
1F
100
AcDbEntity
  8
0
  6
Continuous
 62
     7
370
    15
100
AcDbCircle
 10
223.8598456736
 20
175.9544488411
 30
0.0
 40
9.999999999999005
100
AcDbArc
 50
180.0
 51
243.550590937
  0
LINE
  5
54
330
1F
100
AcDbEntity
  8
0
  6
Continuous
 62
     7
370
    15
100
AcDbLine
 10
213.8598427516
 20
175.9544487989
 30
0.0
 11
213.8598427516
 21
178.0478905833
 31
0.0
  0
LINE
  5
55
330
1F
100
AcDbEntity
  8
0
  6
Continuous
 62
     7
370
    15
100
AcDbLine
 10
213.8598427516
 20
178.0478905833
 30
0.0
 11
219.9553639037
 21
178.0478905833
 31
0.0
  0
LINE
  5
56
330
1F
100
AcDbEntity
  8
0
  6
Continuous
 62
     7
370
    15
100
AcDbLine
 10
219.9553639037
 20
178.0478905833
 30
0.0
 11
219.9553639037
 21
190.0478888249
 31
0.0
  0
LINE
  5
57
330
1F
100
AcDbEntity
  8
0
  6
Continuous
 62
     7
370
    15
100
AcDbLine
 10
219.9553639037
 20
190.0478888249
 30
0.0
 11
213.8598353011
 21
190.0478888249
 31
0.0
  0
ARC
  5
58
330
1F
100
AcDbEntity
  8
0
  6
Continuous
 62
     7
370
    15
100
AcDbCircle
 10
133.8598456736
 20
190.0107156842
 30
0.0
 40
79.99999999998364
100
AcDbArc
 50
0.0266233748
 51
19.6088121339
  0
SPLINE
  5
59
330
1F
100
AcDbEntity
  8
0
  6
Continuous
 62
     7
370
    15
100
AcDbSpline
210
0.0
220
0.0
230
1.0
 70
     8
 71
     3
 72
    24
 73
    20
 74
     0
 42
0.00000001
 43
0.00000001
 12
1.0
 22
0.0
 32
0.0
 13
1.0
 23
0.0
 33
0.0
 40
244.4441046344396
 40
244.4441046344396
 40
244.4441046344396
 40
244.4441046344396
 40
256.3481202149665
 40
256.3481202149665
 40
268.3775463520989
 40
268.3775463520989
 40
292.4363986263637
 40
292.4363986263637
 40
301.8741286268535
 40
301.8741286268535
 40
311.3118586273432
 40
311.3118586273432
 40
330.1873186283227
 40
330.1873186283227
 40
337.7197411839148
 40
337.7197411839148
 40
343.6513557427069
 40
343.6513557427069
 40
347.9956551476383
 40
347.9956551476383
 40
347.9956551476383
 40
347.9956551476383
 10
209.2203135889948
 20
216.8584320781479
 30
0.0
 10
207.9295783682483
 20
220.4814743050132
 30
0.0
 10
206.5979585687508
 20
224.1058432562595
 30
0.0
 10
203.8576110213677
 20
231.3707376374207
 30
0.0
 10
202.4464785206239
 20
235.0140033303087
 30
0.0
 10
198.1190801344261
 20
245.921991016756
 30
0.0
 10
195.1087909709909
 20
253.1649102455497
 30
0.0
 10
190.7707212034536
 20
263.2189367720287
 30
0.0
 10
189.5311708001298
 20
266.050975358959
 30
0.0
 10
187.0267654259697
 20
271.6975488930703
 30
0.0
 10
185.7643353705565
 20
274.5049511063572
 30
0.0
 10
181.9329865783544
 20
282.8695872131909
 30
0.0
 10
179.3199008772537
 20
288.3691711763402
 30
0.0
 10
175.5337454945125
 20
295.9198373418649
 30
0.0
 10
174.4389946928097
 20
298.0572136591998
 30
0.0
 10
172.4519110891091
 20
301.8457311341113
 30
0.0
 10
171.5660060414161
 20
303.503672650972
 30
0.0
 10
170.0113337384601
 20
306.3553718817836
 30
0.0
 10
169.3479006791877
 20
307.5546193589967
 30
0.0
 10
168.6779004850546
 20
308.7472328655375
 30
0.0
  0
LINE
  5
5A
330
1F
100
AcDbEntity
  8
0
  6
Continuous
 62
     7
370
    15
100
AcDbLine
 10
155.1661776719
 20
343.2948578096
 30
0.0
 11
157.7742506158
 21
348.6983764863
 31
0.0
  0
LINE
  5
5B
330
1F
100
AcDbEntity
  8
0
  6
Continuous
 62
     7
370
    15
100
AcDbLine
 10
157.8664645893
 20
341.991646955
 30
0.0
 11
155.1661776719
 21
343.2948578096
 31
0.0
  0
LINE
  5
5C
330
1F
100
AcDbEntity
  8
0
  6
Continuous
 62
     7
370
    15
100
AcDbLine
 10
160.4745375332
 20
347.3951656318
 30
0.0
 11
157.8664645893
 21
341.991646955
 31
0.0
  0
SPLINE
  5
5D
330
1F
100
AcDbEntity
  8
0
  6
Continuous
 62
     7
370
    15
100
AcDbSpline
210
0.0
220
0.0
230
1.0
 70
     8
 71
     3
 72
     8
 73
     4
 74
     0
 42
0.00000001
 43
0.00000001
 12
1.0
 22
0.0
 32
0.0
 13
1.0
 23
0.0
 33
0.0
 40
375.5412598117436
 40
375.5412598117436
 40
375.5412598117436
 40
375.5412598117436
 40
386.4867264400845
 40
386.4867264400845
 40
386.4867264400845
 40
386.4867264400845
 10
168.884421884791
 20
340.3388129629765
 30
0.0
 10
166.3903863853182
 20
343.0770253072993
 30
0.0
 10
163.6396080902466
 20
345.6009179841799
 30
0.0
 10
160.4745376694493
 20
347.3951626446053
 30
0.0
  0
LINE
  5
5E
330
1F
100
AcDbEntity
  8
0
  6
Continuous
 62
     7
370
    15
100
AcDbLine
 10
164.3606234682
 20
336.3984066939
 30
0.0
 11
168.8844222915
 21
340.3388101554
 31
0.0
  0
LINE
  5
5F
330
1F
100
AcDbEntity
  8
0
  6
Continuous
 62
     7
370
    15
100
AcDbLine
 10
166.3320098412
 20
334.1372746921
 30
0.0
 11
164.3606234682
 21
336.3984066939
 31
0.0
  0
LINE
  5
60
330
1F
100
AcDbEntity
  8
0
  6
Continuous
 62
     7
370
    15
100
AcDbLine
 10
170.8558105272
 20
338.0776930547
 30
0.0
 11
166.3320098412
 21
334.1372746921
 31
0.0
  0
SPLINE
  5
61
330
1F
100
AcDbEntity
  8
0
  6
Continuous
 62
     7
370
    15
100
AcDbSpline
210
0.0
220
0.0
230
1.0
 70
     8
 71
     3
 72
     8
 73
     4
 74
     0
 42
0.00000001
 43
0.00000001
 12
1.0
 22
0.0
 32
0.0
 13
1.0
 23
0.0
 33
0.0
 40
352.2975625847118
 40
352.2975625847118
 40
352.2975625847118
 40
352.2975625847118
 40
372.5791275103292
 40
372.5791275103292
 40
372.5791275103292
 40
372.5791275103292
 10
182.2412968366587
 20
321.2957883417196
 30
0.0
 10
178.8526916637967
 20
327.1365222581375
 30
0.0
 10
175.2386025548782
 20
332.8431408866555
 30
0.0
 10
170.855810109029
 20
338.0776897393802
 30
0.0
  0
LINE
  5
62
330
1F
100
AcDbEntity
  8
0
  6
Continuous
 62
     7
370
    15
100
AcDbLine
 10
177.036331628
 20
318.3119881845
 30
0.0
 11
182.2412960571
 21
321.2957818008
 31
0.0
  0
LINE
  5
63
330
1F
100
AcDbEntity
  8
0
  6
Continuous
 62
     7
370
    15
100
AcDbLine
 10
178.5284519535
 20
315.7093811727
 30
0.0
 11
177.036331628
 21
318.3119881845
 31
0.0
  0
LINE
  5
64
330
1F
100
AcDbEntity
  8
0
  6
Continuous
 62
     7
370
    15
100
AcDbLine
 10
183.7334163827
 20
318.6931896901
 30
0.0
 11
178.5284519535
 21
315.7093811727
 31
0.0
  0
SPLINE
  5
65
330
1F
100
AcDbEntity
  8
0
  6
Continuous
 62
     7
370
    15
100
AcDbSpline
210
0.0
220
0.0
230
1.0
 70
     8
 71
     3
 72
     8
 73
     4
 74
     0
 42
0.00000001
 43
0.00000001
 12
1.0
 22
0.0
 32
0.0
 13
1.0
 23
0.0
 33
0.0
 40
302.1738378503351
 40
302.1738378503351
 40
302.1738378503351
 40
302.1738378503351
 40
349.2941954092055
 40
349.2941954092055
 40
349.2941954092055
 40
349.2941954092055
 10
204.6114661678509
 20
276.4464347712204
 30
0.0
 10
198.230637865292
 20
290.82035165339
 30
0.0
 10
191.4724131728985
 20
305.0444172206423
 30
0.0
 10
183.7334167040056
 20
318.6931886976443
 30
0.0
  0
LINE
  5
66
330
1F
100
AcDbEntity
  8
0
  6
Continuous
 62
     7
370
    15
100
AcDbLine
 10
199.1236932916
 20
274.0206856227
 30
0.0
 11
204.611466859
 21
276.4464307523
 31
0.0
  0
LINE
  5
67
330
1F
100
AcDbEntity
  8
0
  6
Continuous
 62
     7
370
    15
100
AcDbLine
 10
200.3365472299
 20
271.2767858005
 30
0.0
 11
199.1236932916
 21
274.0206856227
 31
0.0
  0
LINE
  5
68
330
1F
100
AcDbEntity
  8
0
  6
Continuous
 62
     7
370
    15
100
AcDbLine
 10
205.824317072
 20
273.70253093
 30
0.0
 11
200.3365472299
 21
271.2767858005
 31
0.0
  0
SPLINE
  5
69
330
1F
100
AcDbEntity
  8
0
  6
Continuous
 62
     7
370
    15
100
AcDbSpline
210
0.0
220
0.0
230
1.0
 70
     8
 71
     3
 72
     8
 73
     4
 74
     0
 42
0.00000001
 43
0.00000001
 12
1.0
 22
0.0
 32
0.0
 13
1.0
 23
0.0
 33
0.0
 40
250.7021342860617
 40
250.7021342860617
 40
250.7021342860617
 40
250.7021342860617
 40
299.1773847346821
 40
299.1773847346821
 40
299.1773847346821
 40
299.1773847346821
 10
224.0465642354011
 20
228.7824159748756
 30
0.0
 10
218.4731035992683
 20
243.9451338461487
 30
0.0
 10
212.3409566951542
 20
258.8969712924495
 30
0.0
 10
205.8243172373289
 20
273.702534853419
 30
0.0
  0
LINE
  5
6A
330
1F
100
AcDbEntity
  8
0
  6
Continuous
 62
     7
370
    15
100
AcDbLine
 10
218.4102028948
 20
226.725562284
 30
0.0
 11
224.0465671164
 21
228.7824142671
 31
0.0
  0
LINE
  5
6B
330
1F
100
AcDbEntity
  8
0
  6
Continuous
 62
     7
370
    15
100
AcDbLine
 10
219.4387182933
 20
223.9073876238
 30
0.0
 11
218.4102028948
 21
226.725562284
 31
0.0
  0
LINE
  5
6C
330
1F
100
AcDbEntity
  8
0
  6
Continuous
 62
     7
370
    15
100
AcDbLine
 10
225.0750899655
 20
225.9642396069
 30
0.0
 11
219.4387182933
 21
223.9073876238
 31
0.0
  0
SPLINE
  5
6D
330
1F
100
AcDbEntity
  8
0
  6
Continuous
 62
     7
370
    15
100
AcDbSpline
210
0.0
220
0.0
230
1.0
 70
     8
 71
     3
 72
     8
 73
     4
 74
     0
 42
0.00000001
 43
0.00000001
 12
1.0
 22
0.0
 32
0.0
 13
1.0
 23
0.0
 33
0.0
 40
204.4285420209279
 40
204.4285420209279
 40
204.4285420209279
 40
204.4285420209279
 40
247.7014952235429
 40
247.7014952235429
 40
247.7014952235429
 40
247.7014952235429
 10
237.9758072977274
 20
184.6579788935641
 30
0.0
 10
234.4354459308963
 20
198.6726703394015
 30
0.0
 10
229.9876890517801
 20
212.4051597578073
 30
0.0
 10
225.0750864507663
 20
225.9642374934274
 30
0.0
  0
LINE
  5
6E
330
1F
100
AcDbEntity
  8
0
  6
Continuous
 62
     7
370
    15
100
AcDbLine
 10
232.151889835
 20
183.2153823173
 30
0.0
 11
237.975807522
 21
184.6579786336
 31
0.0
  0
LINE
  5
6F
330
1F
100
AcDbEntity
  8
0
  6
Continuous
 62
     7
370
    15
100
AcDbLine
 10
232.873262499
 20
180.303412298
 30
0.0
 11
232.151889835
 21
183.2153823173
 31
0.0
  0
LINE
  5
70
330
1F
100
AcDbEntity
  8
0
  6
Continuous
 62
     7
370
    15
100
AcDbLine
 10
238.6971801859
 20
181.7460086143
 30
0.0
 11
232.873262499
 21
180.303412298
 31
0.0
  0
SPLINE
  5
71
330
1F
100
AcDbEntity
  8
0
  6
Continuous
 62
     7
370
    15
100
AcDbSpline
210
0.0
220
0.0
230
1.0
 70
     8
 71
     3
 72
     8
 73
     4
 74
     0
 42
0.00000001
 43
0.00000001
 12
1.0
 22
0.0
 32
0.0
 13
1.0
 23
0.0
 33
0.0
 40
161.9932742875711
 40
161.9932742875711
 40
161.9932742875711
 40
161.9932742875711
 40
201.4356547547898
 40
201.4356547547898
 40
201.4356547547898
 40
201.4356547547898
 10
244.492883963092
 20
142.7201056476602
 30
0.0
 10
244.1076460060807
 20
155.8926380017868
 30
0.0
 10
241.8067014859896
 20
168.9361288907218
 30
0.0
 10
238.6971831431905
 20
181.7460090323483
 30
0.0
  0
LINE
  5
72
330
1F
100
AcDbEntity
  8
0
  6
Continuous
 62
     7
370
    15
100
AcDbLine
 10
238.4997696024
 20
142.62135168
 30
0.0
 11
244.4928825241
 21
142.7201058662
 31
0.0
  0
LINE
  5
73
330
1F
100
AcDbEntity
  8
0
  6
Continuous
 62
     7
370
    15
100
AcDbLine
 10
238.549092446
 20
139.4084070756
 30
0.0
 11
238.4997696024
 21
142.62135168
 31
0.0
  0
LINE
  5
74
330
1F
100
AcDbEntity
  8
0
  6
Continuous
 62
     7
370
    15
100
AcDbLine
 10
244.5482775909
 20
139.5072611461
 30
0.0
 11
238.549092446
 21
139.4084070756
 31
0.0
  0
SPLINE
  5
75
330
1F
100
AcDbEntity
  8
0
  6
Continuous
 62
     7
370
    15
100
AcDbSpline
210
0.0
220
0.0
230
1.0
 70
     8
 71
     3
 72
     8
 73
     4
 74
     0
 42
0.00000001
 43
0.00000001
 12
1.0
 22
0.0
 32
0.0
 13
1.0
 23
0.0
 33
0.0
 40
124.2664991218199
 40
124.2664991218199
 40
124.2664991218199
 40
124.2664991218199
 40
158.7889937875613
 40
158.7889937875613
 40
158.7889937875613
 40
158.7889937875613
 10
239.7547219199128
 20
105.2933570657528
 30
0.0
 10
243.1443659086968
 20
116.34683428495
 30
0.0
 10
244.6072632632166
 20
127.9611193455517
 30
0.0
 10
244.5482772384667
 20
139.5072610996314
 30
0.0
  0
LINE
  5
76
330
1F
100
AcDbEntity
  8
0
  6
Continuous
 62
     7
370
    15
100
AcDbLine
 10
234.0455144984
 20
107.138695935
 30
0.0
 11
239.7547230464
 21
105.2933584845
 31
0.0
  0
LINE
  5
77
330
1F
100
AcDbEntity
  8
0
  6
Continuous
 62
     7
370
    15
100
AcDbLine
 10
233.122767542
 20
104.2842257714
 30
0.0
 11
234.0455144984
 21
107.138695935
 31
0.0
  0
LINE
  5
78
330
1F
100
AcDbEntity
  8
0
  6
Continuous
 62
     7
370
    15
100
AcDbLine
 10
238.8319686395
 20
102.4388845956
 30
0.0
 11
233.122767542
 21
104.2842257714
 31
0.0
  0
SPLINE
  5
79
330
1F
100
AcDbEntity
  8
0
  6
Continuous
 62
     7
370
    15
100
AcDbSpline
210
0.0
220
0.0
230
1.0
 70
     8
 71
     3
 72
     8
 73
     4
 74
     0
 42
0.00000001
 43
0.00000001
 12
1.0
 22
0.0
 32
0.0
 13
1.0
 23
0.0
 33
0.0
 40
85.73523081809007
 40
85.73523081809007
 40
85.73523081809007
 40
85.73523081809007
 40
121.2812558648002
 40
121.2812558648002
 40
121.2812558648002
 40
121.2812558648002
 10
221.6190192034982
 20
71.29653276773911
 30
0.0
 10
229.118773716614
 20
80.5398921928202
 30
0.0
 10
234.9971353882292
 20
91.16246656927038
 30
0.0
 10
238.8319704381819
 20
102.4388845101728
 30
0.0
  0
LINE
  5
7A
330
1F
100
AcDbEntity
  8
0
  6
Continuous
 62
     7
370
    15
100
AcDbLine
 10
217.016929422
 20
75.1475904083
 30
0.0
 11
221.6190189463
 21
71.2965343094
 31
0.0
  0
LINE
  5
7B
330
1F
100
AcDbEntity
  8
0
  6
Continuous
 62
     7
370
    15
100
AcDbLine
 10
215.0919527155
 20
72.8467244601
 30
0.0
 11
217.016929422
 21
75.1475904083
 31
0.0
  0
LINE
  5
7C
330
1F
100
AcDbEntity
  8
0
  6
Continuous
 62
     7
370
    15
100
AcDbLine
 10
219.6940496904
 20
68.9956683612
 30
0.0
 11
215.0919527155
 21
72.8467244601
 31
0.0
  0
SPLINE
  5
7D
330
1F
100
AcDbEntity
  8
0
  6
Continuous
 62
     7
370
    15
100
AcDbSpline
210
0.0
220
0.0
230
1.0
 70
     8
 71
     3
 72
     8
 73
     4
 74
     0
 42
0.00000001
 43
0.00000001
 12
1.0
 22
0.0
 32
0.0
 13
1.0
 23
0.0
 33
0.0
 40
44.06570335558993
 40
44.06570335558993
 40
44.06570335558993
 40
44.06570335558993
 40
82.74788543166339
 40
82.74788543166339
 40
82.74788543166339
 40
82.74788543166339
 10
189.3899185091007
 20
44.90929310785835
 30
0.0
 10
200.9119853772558
 20
51.0718401642559
 30
0.0
 10
211.2394753308147
 20
59.19365943979651
 30
0.0
 10
219.6940473878819
 20
68.99566913265515
 30
0.0
  0
LINE
  5
7E
330
1F
100
AcDbEntity
  8
0
  6
Continuous
 62
     7
370
    15
100
AcDbLine
 10
186.6314389151
 20
50.2373415923
 30
0.0
 11
189.3899195236
 21
44.9092898464
 31
0.0
  0
LINE
  5
7F
330
1F
100
AcDbEntity
  8
0
  6
Continuous
 62
     7
370
    15
100
AcDbLine
 10
183.9673795146
 20
48.8580752111
 30
0.0
 11
186.6314389151
 21
50.2373415923
 31
0.0
  0
LINE
  5
80
330
1F
100
AcDbEntity
  8
0
  6
Continuous
 62
     7
370
    15
100
AcDbLine
 10
186.7258601231
 20
43.5300234652
 30
0.0
 11
183.9673795146
 21
48.8580752111
 31
0.0
  0
SPLINE
  5
81
330
1F
100
AcDbEntity
  8
0
  6
Continuous
 62
     7
370
    15
100
AcDbSpline
210
0.0
220
0.0
230
1.0
 70
     8
 71
     3
 72
     8
 73
     4
 74
     0
 42
0.00000001
 43
0.00000001
 12
1.0
 22
0.0
 32
0.0
 13
1.0
 23
0.0
 33
0.0
 40
1.499959933497316
 40
1.499959933497316
 40
1.499959933497316
 40
1.499959933497316
 40
41.10751023818124
 40
41.10751023818124
 40
41.10751023818124
 40
41.10751023818124
 10
148.3818353270263
 20
33.37600015418596
 30
0.0
 10
161.5830701056539
 20
33.65109953887482
 30
0.0
 10
174.745718462867
 20
37.53021318319216
 30
0.0
 10
186.7258584356575
 20
43.5300252851174
 30
0.0
  0
LINE
  5
82
330
1F
100
AcDbEntity
  8
0
  6
Continuous
 62
     7
370
    15
100
AcDbLine
 10
148.3818353261
 20
39.3759969568
 30
0.0
 11
148.3818353261
 21
33.3759996986
 31
0.0
  0
LINE
  5
83
330
1F
100
AcDbEntity
  8
0
  6
Continuous
 62
     7
370
    15
100
AcDbLine
 10
145.3819989799
 20
39.3759969568
 30
0.0
 11
148.3818353261
 21
39.3759969568
 31
0.0
  0
LINE
  5
84
330
1F
100
AcDbEntity
  8
0
  6
Continuous
 62
     7
370
    15
100
AcDbLine
 10
145.3819989799
 20
33.3759996986
 30
0.0
 11
145.3819989799
 21
39.3759969568
 31
0.0
  0
SPLINE
  5
85
330
1F
100
AcDbEntity
  8
0
  6
Continuous
 62
     7
370
    15
100
AcDbSpline
210
0.0
220
0.0
230
1.0
 70
     8
 71
     3
 72
     8
 73
     4
 74
     0
 42
0.00000001
 43
0.00000001
 12
1.0
 22
0.0
 32
0.0
 13
1.0
 23
0.0
 33
0.0
 40
359.4152356617801
 40
359.4152356617801
 40
359.4152356617801
 40
359.4152356617801
 40
399.0227859664618
 40
399.0227859664618
 40
399.0227859664618
 40
399.0227859664618
 10
107.0379758703687
 20
43.5300252851176
 30
0.0
 10
119.0181158431592
 20
37.53021318319249
 30
0.0
 10
132.1807642003728
 20
33.65109953887502
 30
0.0
 10
145.3819989789999
 20
33.37600015418593
 30
0.0
  0
LINE
  5
86
330
1F
100
AcDbEntity
  8
0
  6
Continuous
 62
     7
370
    15
100
AcDbLine
 10
109.7964547914
 20
48.8580752111
 30
0.0
 11
107.037974183
 21
43.5300234652
 31
0.0
  0
LINE
  5
87
330
1F
100
AcDbEntity
  8
0
  6
Continuous
 62
     7
370
    15
100
AcDbLine
 10
107.1323953909
 20
50.2373415923
 30
0.0
 11
109.7964547914
 21
48.8580752111
 31
0.0
  0
LINE
  5
88
330
1F
100
AcDbEntity
  8
0
  6
Continuous
 62
     7
370
    15
100
AcDbLine
 10
104.3739147824
 20
44.9092898464
 30
0.0
 11
107.1323953909
 21
50.2373415923
 31
0.0
  0
SPLINE
  5
89
330
1F
100
AcDbEntity
  8
0
  6
Continuous
 62
     7
370
    15
100
AcDbSpline
210
0.0
220
0.0
230
1.0
 70
     8
 71
     3
 72
     8
 73
     4
 74
     0
 42
0.00000001
 43
0.00000001
 12
1.0
 22
0.0
 32
0.0
 13
1.0
 23
0.0
 33
0.0
 40
317.7748604683023
 40
317.7748604683023
 40
317.7748604683023
 40
317.7748604683023
 40
356.4570425443715
 40
356.4570425443715
 40
356.4570425443715
 40
356.4570425443715
 10
74.06978691814811
 20
68.99566913265224
 30
0.0
 10
82.52435897521374
 20
59.1936594397951
 30
0.0
 10
92.85184892877129
 20
51.07184016425556
 30
0.0
 10
104.3739157969256
 20
44.90929310785852
 30
0.0
  0
LINE
  5
8A
330
1F
100
AcDbEntity
  8
0
  6
Continuous
 62
     7
370
    15
100
AcDbLine
 10
78.6718815905
 20
72.8467244601
 30
0.0
 11
74.0697846156
 21
68.9956683612
 31
0.0
  0
LINE
  5
8B
330
1F
100
AcDbEntity
  8
0
  6
Continuous
 62
     7
370
    15
100
AcDbLine
 10
76.746904884
 20
75.1475904083
 30
0.0
 11
78.6718815905
 21
72.8467244601
 31
0.0
  0
LINE
  5
8C
330
1F
100
AcDbEntity
  8
0
  6
Continuous
 62
     7
370
    15
100
AcDbLine
 10
72.1448153597
 20
71.2965343094
 30
0.0
 11
76.746904884
 21
75.1475904083
 31
0.0
  0
SPLINE
  5
8D
330
1F
100
AcDbEntity
  8
0
  6
Continuous
 62
     7
370
    15
100
AcDbSpline
210
0.0
220
0.0
230
1.0
 70
     8
 71
     3
 72
     8
 73
     4
 74
     0
 42
0.00000001
 43
0.00000001
 12
1.0
 22
0.0
 32
0.0
 13
1.0
 23
0.0
 33
0.0
 40
279.2414900351527
 40
279.2414900351527
 40
279.2414900351527
 40
279.2414900351527
 40
314.7875150818708
 40
314.7875150818708
 40
314.7875150818708
 40
314.7875150818708
 10
54.93186386784531
 20
102.4388845101814
 30
0.0
 10
58.7666989177978
 20
91.16246656927602
 30
0.0
 10
64.64506058941244
 20
80.53989219282307
 30
0.0
 10
72.14481510252884
 20
71.29653276773988
 30
0.0
  0
LINE
  5
8E
330
1F
100
AcDbEntity
  8
0
  6
Continuous
 62
     7
370
    15
100
AcDbLine
 10
60.641066764
 20
104.2842257714
 30
0.0
 11
54.9318656665
 21
102.4388845956
 31
0.0
  0
LINE
  5
8F
330
1F
100
AcDbEntity
  8
0
  6
Continuous
 62
     7
370
    15
100
AcDbLine
 10
59.7183198077
 20
107.138695935
 30
0.0
 11
60.641066764
 21
104.2842257714
 31
0.0
  0
LINE
  5
90
330
1F
100
AcDbEntity
  8
0
  6
Continuous
 62
     7
370
    15
100
AcDbLine
 10
54.0091112596
 20
105.2933584845
 30
0.0
 11
59.7183198077
 21
107.138695935
 31
0.0
  0
SPLINE
  5
91
330
1F
100
AcDbEntity
  8
0
  6
Continuous
 62
     7
370
    15
100
AcDbSpline
210
0.0
220
0.0
230
1.0
 70
     8
 71
     3
 72
     8
 73
     4
 74
     0
 42
0.00000001
 43
0.00000001
 12
1.0
 22
0.0
 32
0.0
 13
1.0
 23
0.0
 33
0.0
 40
241.7337521124008
 40
241.7337521124008
 40
241.7337521124008
 40
241.7337521124008
 40
276.2562467781549
 40
276.2562467781549
 40
276.2562467781549
 40
276.2562467781549
 10
49.21555706756149
 20
139.5072610996314
 30
0.0
 10
49.15657104281198
 20
127.9611193455474
 30
0.0
 10
50.6194683973342
 20
116.3468342849413
 30
0.0
 10
54.00911238612101
 20
105.2933570657404
 30
0.0
  0
LINE
  5
92
330
1F
100
AcDbEntity
  8
0
  6
Continuous
 62
     7
370
    15
100
AcDbLine
 10
55.21474186
 20
139.4084070756
 30
0.0
 11
49.2155567151
 21
139.5072611461
 31
0.0
  0
LINE
  5
93
330
1F
100
AcDbEntity
  8
0
  6
Continuous
 62
     7
370
    15
100
AcDbLine
 10
55.2640647036
 20
142.62135168
 30
0.0
 11
55.21474186
 21
139.4084070756
 31
0.0
  0
LINE
  5
94
330
1F
100
AcDbEntity
  8
0
  6
Continuous
 62
     7
370
    15
100
AcDbLine
 10
49.2709517819
 20
142.7201058662
 30
0.0
 11
55.2640647036
 21
142.62135168
 31
0.0
  0
SPLINE
  5
95
330
1F
100
AcDbEntity
  8
0
  6
Continuous
 62
     7
370
    15
100
AcDbSpline
210
0.0
220
0.0
230
1.0
 70
     8
 71
     3
 72
     8
 73
     4
 74
     0
 42
0.00000001
 43
0.00000001
 12
1.0
 22
0.0
 32
0.0
 13
1.0
 23
0.0
 33
0.0
 40
199.0870911451732
 40
199.0870911451732
 40
199.0870911451732
 40
199.0870911451732
 40
238.529471612391
 40
238.529471612391
 40
238.529471612391
 40
238.529471612391
 10
55.06665116283961
 20
181.7460090323473
 30
0.0
 10
51.95713282003933
 20
168.9361288907212
 30
0.0
 10
49.65618829994721
 20
155.8926380017865
 30
0.0
 10
49.27095034293615
 20
142.7201056476602
 30
0.0
  0
LINE
  5
96
330
1F
100
AcDbEntity
  8
0
  6
Continuous
 62
     7
370
    15
100
AcDbLine
 10
60.890571807
 20
180.303412298
 30
0.0
 11
55.0666541201
 21
181.7460086143
 31
0.0
  0
LINE
  5
97
330
1F
100
AcDbEntity
  8
0
  6
Continuous
 62
     7
370
    15
100
AcDbLine
 10
61.611944471
 20
183.2153823173
 30
0.0
 11
60.890571807
 21
180.303412298
 31
0.0
  0
LINE
  5
98
330
1F
100
AcDbEntity
  8
0
  6
Continuous
 62
     7
370
    15
100
AcDbLine
 10
55.7880267841
 20
184.6579786336
 30
0.0
 11
61.611944471
 21
183.2153823173
 31
0.0
  0
SPLINE
  5
99
330
1F
100
AcDbEntity
  8
0
  6
Continuous
 62
     7
370
    15
100
AcDbSpline
210
0.0
220
0.0
230
1.0
 70
     8
 71
     3
 72
     8
 73
     4
 74
     0
 42
0.00000001
 43
0.00000001
 12
1.0
 22
0.0
 32
0.0
 13
1.0
 23
0.0
 33
0.0
 40
152.8212506764205
 40
152.8212506764205
 40
152.8212506764205
 40
152.8212506764205
 40
196.094203879035
 40
196.094203879035
 40
196.094203879035
 40
196.094203879035
 10
68.68874785526697
 20
225.9642374934253
 30
0.0
 10
63.77614525425253
 20
212.4051597578056
 30
0.0
 10
59.32838837513529
 20
198.6726703394002
 30
0.0
 10
55.78802700830288
 20
184.6579788935631
 30
0.0
  0
LINE
  5
9A
330
1F
100
AcDbEntity
  8
0
  6
Continuous
 62
     7
370
    15
100
AcDbLine
 10
74.3251160127
 20
223.9073876238
 30
0.0
 11
68.6887443406
 21
225.9642396069
 31
0.0
  0
LINE
  5
9B
330
1F
100
AcDbEntity
  8
0
  6
Continuous
 62
     7
370
    15
100
AcDbLine
 10
75.3536314112
 20
226.725562284
 30
0.0
 11
74.3251160127
 21
223.9073876238
 31
0.0
  0
LINE
  5
9C
330
1F
100
AcDbEntity
  8
0
  6
Continuous
 62
     7
370
    15
100
AcDbLine
 10
69.7172671896
 20
228.7824142671
 30
0.0
 11
75.3536314112
 21
226.725562284
 31
0.0
  0
SPLINE
  5
9D
330
1F
100
AcDbEntity
  8
0
  6
Continuous
 62
     7
370
    15
100
AcDbSpline
210
0.0
220
0.0
230
1.0
 70
     8
 71
     3
 72
     8
 73
     4
 74
     0
 42
0.00000001
 43
0.00000001
 12
1.0
 22
0.0
 32
0.0
 13
1.0
 23
0.0
 33
0.0
 40
101.3453611652818
 40
101.3453611652818
 40
101.3453611652818
 40
101.3453611652818
 40
149.8206116139029
 40
149.8206116139029
 40
149.8206116139029
 40
149.8206116139029
 10
87.93951706870537
 20
273.7025348534153
 30
0.0
 10
81.42287761087985
 20
258.896971292446
 30
0.0
 10
75.29073070676547
 20
243.9451338461455
 30
0.0
 10
69.71727007063187
 20
228.7824159748724
 30
0.0
  0
LINE
  5
9E
330
1F
100
AcDbEntity
  8
0
  6
Continuous
 62
     7
370
    15
100
AcDbLine
 10
93.4272870761
 20
271.2767858005
 30
0.0
 11
87.939517234
 21
273.70253093
 31
0.0
  0
LINE
  5
9F
330
1F
100
AcDbEntity
  8
0
  6
Continuous
 62
     7
370
    15
100
AcDbLine
 10
94.6401410145
 20
274.0206856227
 30
0.0
 11
93.4272870761
 21
271.2767858005
 31
0.0
  0
LINE
  5
A0
330
1F
100
AcDbEntity
  8
0
  6
Continuous
 62
     7
370
    15
100
AcDbLine
 10
89.152367447
 20
276.4464307523
 30
0.0
 11
94.6401410145
 21
274.0206856227
 31
0.0
  0
SPLINE
  5
A1
330
1F
100
AcDbEntity
  8
0
  6
Continuous
 62
     7
370
    15
100
AcDbSpline
210
0.0
220
0.0
230
1.0
 70
     8
 71
     3
 72
     8
 73
     4
 74
     0
 42
0.00000001
 43
0.00000001
 12
1.0
 22
0.0
 32
0.0
 13
1.0
 23
0.0
 33
0.0
 40
51.2285504907589
 40
51.2285504907589
 40
51.2285504907589
 40
51.2285504907589
 40
98.34890804962905
 40
98.34890804962905
 40
98.34890804962905
 40
98.34890804962905
 10
110.0304176020301
 20
318.6931886976391
 30
0.0
 10
102.291421133136
 20
305.0444172206375
 30
0.0
 10
95.5331964407424
 20
290.8203516533856
 30
0.0
 10
89.15236813818336
 20
276.4464347712164
 30
0.0
  0
LINE
  5
A2
330
1F
100
AcDbEntity
  8
0
  6
Continuous
 62
     7
370
    15
100
AcDbLine
 10
115.2353823525
 20
315.7093811727
 30
0.0
 11
110.0304179233
 21
318.6931896901
 31
0.0
  0
LINE
  5
A3
330
1F
100
AcDbEntity
  8
0
  6
Continuous
 62
     7
370
    15
100
AcDbLine
 10
116.7275026781
 20
318.3119881845
 30
0.0
 11
115.2353823525
 21
315.7093811727
 31
0.0
  0
LINE
  5
A4
330
1F
100
AcDbEntity
  8
0
  6
Continuous
 62
     7
370
    15
100
AcDbLine
 10
111.5225382489
 20
321.2957818008
 30
0.0
 11
116.7275026781
 21
318.3119881845
 31
0.0
  0
SPLINE
  5
A5
330
1F
100
AcDbEntity
  8
0
  6
Continuous
 62
     7
370
    15
100
AcDbSpline
210
0.0
220
0.0
230
1.0
 70
     8
 71
     3
 72
     8
 73
     4
 74
     0
 42
0.00000001
 43
0.00000001
 12
1.0
 22
0.0
 32
0.0
 13
1.0
 23
0.0
 33
0.0
 40
27.94361838964275
 40
27.94361838964275
 40
27.94361838964275
 40
27.94361838964275
 40
48.22518331525341
 40
48.22518331525341
 40
48.22518331525341
 40
48.22518331525341
 10
122.9080241970036
 20
338.0776897393691
 30
0.0
 10
118.5252317511561
 20
332.8431408866457
 30
0.0
 10
114.9111426422383
 20
327.1365222581294
 30
0.0
 10
111.5225374693768
 20
321.2957883417136
 30
0.0
  0
LINE
  5
A6
330
1F
100
AcDbEntity
  8
0
  6
Continuous
 62
     7
370
    15
100
AcDbLine
 10
127.4318244648
 20
334.1372746921
 30
0.0
 11
122.9080237788
 21
338.0776930547
 31
0.0
  0
LINE
  5
A7
330
1F
100
AcDbEntity
  8
0
  6
Continuous
 62
     7
370
    15
100
AcDbLine
 10
129.4032108379
 20
336.3984066939
 30
0.0
 11
127.4318244648
 21
334.1372746921
 31
0.0
  0
LINE
  5
A8
330
1F
100
AcDbEntity
  8
0
  6
Continuous
 62
     7
370
    15
100
AcDbLine
 10
124.8794120145
 20
340.3388101554
 30
0.0
 11
129.4032108379
 21
336.3984066939
 31
0.0
  0
SPLINE
  5
A9
330
1F
100
AcDbEntity
  8
0
  6
Continuous
 62
     7
370
    15
100
AcDbSpline
210
0.0
220
0.0
230
1.0
 70
     8
 71
     3
 72
     8
 73
     4
 74
     0
 42
0.00000001
 43
0.00000001
 12
1.0
 22
0.0
 32
0.0
 13
1.0
 23
0.0
 33
0.0
 40
14.03601945988792
 40
14.03601945988792
 40
14.03601945988792
 40
14.03601945988792
 40
24.98148608822478
 40
24.98148608822478
 40
24.98148608822478
 40
24.98148608822478
 10
133.289296636581
 20
347.3951626445979
 30
0.0
 10
130.1242262157861
 20
345.6009179841712
 30
0.0
 10
127.3734479207159
 20
343.0770253072906
 30
0.0
 10
124.879412421244
 20
340.3388129629684
 30
0.0
  0
LINE
  5
AA
330
1F
100
AcDbEntity
  8
0
  6
Continuous
 62
     7
370
    15
100
AcDbLine
 10
135.8973697168
 20
341.991646955
 30
0.0
 11
133.2892967728
 21
347.3951656318
 31
0.0
  0
LINE
  5
AB
330
1F
100
AcDbEntity
  8
0
  6
Continuous
 62
     7
370
    15
100
AcDbLine
 10
138.5976566342
 20
343.2948578096
 30
0.0
 11
135.8973697168
 21
341.991646955
 31
0.0
  0
LINE
  5
AC
330
1F
100
AcDbEntity
  8
0
  6
Continuous
 62
     7
370
    15
100
AcDbLine
 10
135.9895836902
 20
348.6983764863
 30
0.0
 11
138.5976566342
 21
343.2948578096
 31
0.0
  0
SPLINE
  5
AD
330
1F
100
AcDbEntity
  8
0
  6
Continuous
 62
     7
370
    15
100
AcDbSpline
210
0.0
220
0.0
230
1.0
 70
     8
 71
     3
 72
     8
 73
     4
 74
     0
 42
0.00000001
 43
0.00000001
 12
1.0
 22
0.0
 32
0.0
 13
1.0
 23
0.0
 33
0.0
 40
1.494388725928091
 40
1.494388725928091
 40
1.494388725928091
 40
1.494388725928091
 40
11.03300554232437
 40
11.03300554232437
 40
11.03300554232437
 40
11.03300554232437
 10
145.3822821109941
 20
350.6369305478667
 30
0.0
 10
142.1830275264442
 20
350.4951076299345
 30
0.0
 10
138.9458308092776
 20
349.8908152637734
 30
0.0
 10
135.989583303782
 20
348.6983761508529
 30
0.0
  0
LINE
  5
AE
330
1F
100
AcDbEntity
  8
0
  6
Continuous
 62
     7
370
    15
100
AcDbLine
 10
145.382282102
 20
344.6369308925
 30
0.0
 11
145.382282102
 21
350.6369281507
 31
0.0
  0
LINE
  5
AF
330
1F
100
AcDbEntity
  8
0
  6
Continuous
 62
     7
370
    15
100
AcDbLine
 10
148.381552204
 20
344.6369308925
 30
0.0
 11
145.382282102
 21
344.6369308925
 31
0.0
  0
LINE
  5
B0
330
1F
100
AcDbEntity
  8
0
  6
Continuous
 62
     7
370
    15
100
AcDbLine
 10
148.381552204
 20
350.6369281507
 30
0.0
 11
148.381552204
 21
344.6369308925
 31
0.0
  0
SPLINE
  5
B1
330
1F
100
AcDbEntity
  8
0
  6
Continuous
 62
     7
370
    15
100
AcDbSpline
210
0.0
220
0.0
230
1.0
 70
     8
 71
     3
 72
     8
 73
     4
 74
     0
 42
0.00000001
 43
0.00000001
 12
1.0
 22
0.0
 32
0.0
 13
1.0
 23
0.0
 33
0.0
 40
389.4897403576496
 40
389.4897403576496
 40
389.4897403576496
 40
389.4897403576496
 40
399.0283571740451
 40
399.0283571740451
 40
399.0283571740451
 40
399.0283571740451
 10
157.7742510022456
 20
348.6983761508589
 30
0.0
 10
154.8180034967491
 20
349.8908152637773
 30
0.0
 10
151.5808067795817
 20
350.4951076299366
 30
0.0
 10
148.381552195032
 20
350.6369305478673
 30
0.0
  0
DIMENSION
  5
B2
330
1F
100
AcDbEntity
  8
0
  6
Continuous
 62
     7
370
     0
100
AcDbDimension
  2
_D
 10
73.8084673921
 20
158.0542546394
 30
0.0
 11
146.881917153
 21
158.0542546394
 31
0.0
 70
   160
  1
<>
 71
     2
 42
-1.0
  3
SLDDIMSTYLE0
100
AcDbAlignedDimension
 13
219.955366914
 23
178.0478889266
 33
0.0
 14
73.8084673921
 24
178.0478889266
 34
0.0
100
AcDbRotatedDimension
  0
ENDSEC
  0
SECTION
  2
OBJECTS
  0
DICTIONARY
  5
C
330
0
100
AcDbDictionary
281
     1
  3
ACAD_GROUP
350
D
  3
ACAD_LAYOUT
350
1A
  3
ACAD_MLINESTYLE
350
17
  3
ACAD_PLOTSETTINGS
350
19
  3
ACAD_PLOTSTYLENAME
350
E
  0
DICTIONARY
  5
D
102
{ACAD_REACTORS
330
C
102
}
330
C
100
AcDbDictionary
281
     1
  0
DICTIONARY
  5
1A
102
{ACAD_REACTORS
330
C
102
}
330
C
100
AcDbDictionary
281
     1
  3
Layout1
350
1E
  3
Layout2
350
26
  3
Model
350
22
  0
DICTIONARY
  5
17
102
{ACAD_REACTORS
330
C
102
}
330
C
100
AcDbDictionary
281
     1
  3
Standard
350
18
  0
DICTIONARY
  5
19
102
{ACAD_REACTORS
330
C
102
}
330
C
100
AcDbDictionary
281
     1
  0
ACDBDICTIONARYWDFLT
  5
E
102
{ACAD_REACTORS
330
C
102
}
330
C
100
AcDbDictionary
281
     1
  3
Normal
350
F
100
AcDbDictionaryWithDefault
340
F
  0
LAYOUT
  5
1E
102
{ACAD_REACTORS
330
1A
102
}
330
1A
100
AcDbPlotSettings
  1

  2
none_device
  4

  6

 40
0.0
 41
0.0
 42
0.0
 43
0.0
 44
0.0
 45
0.0
 46
0.0
 47
0.0
 48
0.0
 49
0.0
140
0.0
141
0.0
142
1.0
143
1.0
 70
   688
 72
     0
 73
     0
 74
     5
  7

 75
    16
147
1.0
148
0.0
149
0.0
100
AcDbLayout
  1
Layout1
 70
     1
 71
     1
 10
0.0
 20
0.0
 11
420.0
 21
297.0
 12
0.0
 22
0.0
 32
0.0
 14
1.0000000000E+20
 24
1.0000000000E+20
 34
1.0000000000E+20
 15
-1.0000000000E+20
 25
-1.0000000000E+20
 35
-1.0000000000E+20
146
0.0
 13
0.0
 23
0.0
 33
0.0
 16
1.0
 26
0.0
 36
0.0
 17
0.0
 27
1.0
 37
0.0
 76
     0
330
1B
  0
LAYOUT
  5
26
102
{ACAD_REACTORS
330
1A
102
}
330
1A
100
AcDbPlotSettings
  1

  2
none_device
  4

  6

 40
0.0
 41
0.0
 42
0.0
 43
0.0
 44
0.0
 45
0.0
 46
0.0
 47
0.0
 48
0.0
 49
0.0
140
0.0
141
0.0
142
1.0
143
1.0
 70
   688
 72
     0
 73
     0
 74
     5
  7

 75
    16
147
1.0
148
0.0
149
0.0
100
AcDbLayout
  1
Layout2
 70
     1
 71
     2
 10
0.0
 20
0.0
 11
0.0
 21
0.0
 12
0.0
 22
0.0
 32
0.0
 14
0.0
 24
0.0
 34
0.0
 15
0.0
 25
0.0
 35
0.0
146
0.0
 13
0.0
 23
0.0
 33
0.0
 16
1.0
 26
0.0
 36
0.0
 17
0.0
 27
1.0
 37
0.0
 76
     0
330
23
  0
LAYOUT
  5
22
102
{ACAD_REACTORS
330
1A
102
}
330
1A
100
AcDbPlotSettings
  1

  2
none_device
  4

  6

 40
0.0
 41
0.0
 42
0.0
 43
0.0
 44
0.0
 45
0.0
 46
0.0
 47
0.0
 48
0.0
 49
0.0
140
0.0
141
0.0
142
1.0
143
1.0
 70
  1712
 72
     0
 73
     0
 74
     0
  7

 75
     0
147
1.0
148
0.0
149
0.0
100
AcDbLayout
  1
Model
 70
     1
 71
     0
 10
0.0
 20
0.0
 11
297.0
 21
420.0
 12
0.0
 22
0.0
 32
0.0
 14
0.0
 24
0.0
 34
0.0
 15
297.0
 25
420.0
 35
0.0
146
0.0
 13
0.0
 23
0.0
 33
0.0
 16
1.0
 26
0.0
 36
0.0
 17
0.0
 27
1.0
 37
0.0
 76
     0
330
1F
331
29
  0
MLINESTYLE
  5
18
102
{ACAD_REACTORS
330
17
102
}
330
17
100
AcDbMlineStyle
  2
Standard
 70
     0
  3

 62
   256
 51
90.0
 52
90.0
 71
     2
 49
0.5
 62
   256
  6
BYLAYER
 49
-0.5
 62
   256
  6
BYLAYER
  0
ACDBPLACEHOLDER
  5
F
102
{ACAD_REACTORS
330
E
102
}
330
E
  0
ENDSEC
  0
EOF
