  0
SECTION
  2
HEADER
  9
$ACADVER
  1
AC1015
  9
$ACADMAINTVER
 70
     6
  9
$DWGCODEPAGE
  3
ANSI_1252
  9
$INSBASE
 10
0.0
 20
0.0
 30
0.0
  9
$EXTMIN
 10
0.0
 20
0.0
 30
0.0
  9
$EXTMAX
 10
297.0
 20
420.0
 30
0.0
  9
$LIMMIN
 10
0.0
 20
0.0
  9
$LIMMAX
 10
297.0
 20
420.0
  9
$ORTHOMODE
 70
     0
  9
$REGENMODE
 70
     1
  9
$FILLMODE
 70
     1
  9
$QTEXTMODE
 70
     0
  9
$MIRRTEXT
 70
     1
  9
$LTSCALE
 40
1.0
  9
$ATTMODE
 70
     1
  9
$TEXTSIZE
 40
2.5
  9
$TRACEWID
 40
1.0
  9
$TEXTSTYLE
  7
Standard
  9
$CLAYER
  8
0
  9
$CELTYPE
  6
ByLayer
  9
$CECOLOR
 62
   256
  9
$CELTSCALE
 40
1.0
  9
$DISPSILH
 70
     0
  9
$DIMSCALE
 40
1.0
  9
$DIMASZ
 40
4.0
  9
$DIMEXO
 40
1.0
  9
$DIMDLI
 40
3.75
  9
$DIMRND
 40
0.0
  9
$DIMDLE
 40
0.0
  9
$DIMEXE
 40
1.0
  9
$DIMTP
 40
0.0
  9
$DIMTM
 40
0.0
  9
$DIMTXT
 40
2.5
  9
$DIMCEN
 40
2.5
  9
$DIMTSZ
 40
0.0
  9
$DIMTOL
 70
     0
  9
$DIMLIM
 70
     0
  9
$DIMTIH
 70
     1
  9
$DIMTOH
 70
     1
  9
$DIMSE1
 70
     0
  9
$DIMSE2
 70
     0
  9
$DIMTAD
 70
     1
  9
$DIMZIN
 70
     0
  9
$DIMBLK
  1

  9
$DIMASO
 70
     1
  9
$DIMSHO
 70
     1
  9
$DIMPOST
  1

  9
$DIMAPOST
  1

  9
$DIMALT
 70
     0
  9
$DIMALTD
 70
     3
  9
$DIMALTF
 40
0.0393700787
  9
$DIMLFAC
 40
2.0
  9
$DIMTOFL
 70
     1
  9
$DIMTVP
 40
0.0
  9
$DIMTIX
 70
     0
  9
$DIMSOXD
 70
     0
  9
$DIMSAH
 70
     0
  9
$DIMBLK1
  1

  9
$DIMBLK2
  1

  9
$DIMSTYLE
  2
ISO-25
  9
$DIMCLRD
 70
     0
  9
$DIMCLRE
 70
     0
  9
$DIMCLRT
 70
     0
  9
$DIMTFAC
 40
1.0
  9
$DIMGAP
 40
1.524
  9
$DIMJUST
 70
     0
  9
$DIMSD1
 70
     0
  9
$DIMSD2
 70
     0
  9
$DIMTOLJ
 70
     0
  9
$DIMTZIN
 70
     0
  9
$DIMALTZ
 70
     0
  9
$DIMALTTZ
 70
     0
  9
$DIMUPT
 70
     0
  9
$DIMDEC
 70
     2
  9
$DIMTDEC
 70
     2
  9
$DIMALTU
 70
     2
  9
$DIMALTTD
 70
     3
  9
$DIMTXSTY
  7
Standard
  9
$DIMAUNIT
 70
     0
  9
$DIMADEC
 70
     2
  9
$DIMALTRND
 40
0.0
  9
$DIMAZIN
 70
     0
  9
$DIMDSEP
 70
    44
  9
$DIMATFIT
 70
     3
  9
$DIMFRAC
 70
     0
  9
$DIMLDRBLK
  1

  9
$DIMLUNIT
 70
     2
  9
$DIMLWD
 70
    -2
  9
$DIMLWE
 70
    -2
  9
$DIMTMOVE
 70
     0
  9
$LUNITS
 70
     2
  9
$LUPREC
 70
     2
  9
$SKETCHINC
 40
1.0
  9
$FILLETRAD
 40
10.0
  9
$AUNITS
 70
     0
  9
$AUPREC
 70
     2
  9
$MENU
  1
.
  9
$ELEVATION
 40
0.0
  9
$PELEVATION
 40
0.0
  9
$THICKNESS
 40
0.0
  9
$LIMCHECK
 70
     0
  9
$CHAMFERA
 40
10.0
  9
$CHAMFERB
 40
10.0
  9
$CHAMFERC
 40
20.0
  9
$CHAMFERD
 40
0.0
  9
$SKPOLY
 70
     0
  9
$TDCREATE
 40
2456917.918545764
  9
$TDUCREATE
 40
2456917.83521243
  9
$TDUPDATE
 40
2456917.918546343
  9
$TDUUPDATE
 40
2456917.835213009
  9
$TDINDWG
 40
0.0000000116
  9
$TDUSRTIMER
 40
0.0000000116
  9
$USRTIMER
 70
     1
  9
$ANGBASE
 50
0.0
  9
$ANGDIR
 70
     0
  9
$PDMODE
 70
     0
  9
$PDSIZE
 40
-1.0
  9
$PLINEWID
 40
0.0
  9
$SPLFRAME
 70
     0
  9
$SPLINETYPE
 70
     6
  9
$SPLINESEGS
 70
     8
  9
$HANDSEED
  5
144
  9
$SURFTAB1
 70
     6
  9
$SURFTAB2
 70
     6
  9
$SURFTYPE
 70
     6
  9
$SURFU
 70
     6
  9
$SURFV
 70
     6
  9
$UCSBASE
  2

  9
$UCSNAME
  2

  9
$UCSORG
 10
0.0
 20
0.0
 30
0.0
  9
$UCSXDIR
 10
1.0
 20
0.0
 30
0.0
  9
$UCSYDIR
 10
0.0
 20
1.0
 30
0.0
  9
$UCSORTHOREF
  2

  9
$UCSORTHOVIEW
 70
     0
  9
$UCSORGTOP
 10
0.0
 20
0.0
 30
0.0
  9
$UCSORGBOTTOM
 10
0.0
 20
0.0
 30
0.0
  9
$UCSORGLEFT
 10
0.0
 20
0.0
 30
0.0
  9
$UCSORGRIGHT
 10
0.0
 20
0.0
 30
0.0
  9
$UCSORGFRONT
 10
0.0
 20
0.0
 30
0.0
  9
$UCSORGBACK
 10
0.0
 20
0.0
 30
0.0
  9
$PUCSBASE
  2

  9
$PUCSNAME
  2

  9
$PUCSORG
 10
0.0
 20
0.0
 30
0.0
  9
$PUCSXDIR
 10
1.0
 20
0.0
 30
0.0
  9
$PUCSYDIR
 10
0.0
 20
1.0
 30
0.0
  9
$PUCSORTHOREF
  2

  9
$PUCSORTHOVIEW
 70
     0
  9
$PUCSORGTOP
 10
0.0
 20
0.0
 30
0.0
  9
$PUCSORGBOTTOM
 10
0.0
 20
0.0
 30
0.0
  9
$PUCSORGLEFT
 10
0.0
 20
0.0
 30
0.0
  9
$PUCSORGRIGHT
 10
0.0
 20
0.0
 30
0.0
  9
$PUCSORGFRONT
 10
0.0
 20
0.0
 30
0.0
  9
$PUCSORGBACK
 10
0.0
 20
0.0
 30
0.0
  9
$USERI1
 70
     0
  9
$USERI2
 70
     0
  9
$USERI3
 70
     0
  9
$USERI4
 70
     0
  9
$USERI5
 70
     0
  9
$USERR1
 40
0.0
  9
$USERR2
 40
0.0
  9
$USERR3
 40
0.0
  9
$USERR4
 40
0.0
  9
$USERR5
 40
0.0
  9
$WORLDVIEW
 70
     1
  9
$SHADEDGE
 70
     3
  9
$SHADEDIF
 70
    70
  9
$TILEMODE
 70
     1
  9
$MAXACTVP
 70
    64
  9
$PINSBASE
 10
0.0
 20
0.0
 30
0.0
  9
$PLIMCHECK
 70
     0
  9
$PEXTMIN
 10
1.0000000000E+20
 20
1.0000000000E+20
 30
1.0000000000E+20
  9
$PEXTMAX
 10
-1.0000000000E+20
 20
-1.0000000000E+20
 30
-1.0000000000E+20
  9
$PLIMMIN
 10
0.0
 20
0.0
  9
$PLIMMAX
 10
420.0
 20
297.0
  9
$UNITMODE
 70
     0
  9
$VISRETAIN
 70
     1
  9
$PLINEGEN
 70
     0
  9
$PSLTSCALE
 70
     1
  9
$TREEDEPTH
 70
  3020
  9
$CMLSTYLE
  2
Standard
  9
$CMLJUST
 70
     0
  9
$CMLSCALE
 40
20.0
  9
$PROXYGRAPHICS
 70
     1
  9
$MEASUREMENT
 70
     1
  9
$CELWEIGHT
370
    -1
  9
$ENDCAPS
280
     0
  9
$JOINSTYLE
280
     0
  9
$LWDISPLAY
290
     1
  9
$INSUNITS
 70
     4
  9
$HYPERLINKBASE
  1

  9
$STYLESHEET
  1

  9
$XEDIT
290
     1
  9
$CEPSNTYPE
380
     0
  9
$PSTYLEMODE
290
     1
  9
$FINGERPRINTGUID
  2
{56116BE2-89A9-4B57-B958-CCCF7109B854}
  9
$VERSIONGUID
  2
{FAEB1C32-E019-11D5-929B-00C0DF256EC4}
  9
$EXTNAMES
290
     1
  9
$PSVPSCALE
 40
0.0
  9
$OLESTARTUP
290
     0
  0
ENDSEC
  0
SECTION
  2
CLASSES
  0
CLASS
  1
ACDBDICTIONARYWDFLT
  2
AcDbDictionaryWithDefault
  3
ObjectDBX Classes
 90
        0
280
     0
281
     0
  0
CLASS
  1
VISUALSTYLE
  2
AcDbVisualStyle
  3
ObjectDBX Classes
 90
     4095
280
     0
281
     0
  0
CLASS
  1
MATERIAL
  2
AcDbMaterial
  3
ObjectDBX Classes
 90
     1153
280
     0
281
     0
  0
CLASS
  1
ACDBPLACEHOLDER
  2
AcDbPlaceHolder
  3
ObjectDBX Classes
 90
        0
280
     0
281
     0
  0
CLASS
  1
LAYOUT
  2
AcDbLayout
  3
ObjectDBX Classes
 90
        0
280
     0
281
     0
  0
ENDSEC
  0
SECTION
  2
TABLES
  0
TABLE
  2
VPORT
  5
8
330
0
100
AcDbSymbolTable
 70
     1
  0
VPORT
  5
29
330
8
100
AcDbSymbolTableRecord
100
AcDbViewportTableRecord
  2
*Active
 70
     0
 10
0.0
 20
0.0
 11
1.0
 21
1.0
 12
148.5
 22
210.0
 13
0.0
 23
0.0
 14
10.0
 24
10.0
 15
10.0
 25
10.0
 16
0.0
 26
0.0
 36
1.0
 17
0.0
 27
0.0
 37
0.0
 40
420.0
 41
0.7071428571
 42
50.0
 43
0.0
 44
0.0
 50
0.0
 51
0.0
 71
     0
 72
  2000
 73
     1
 74
     3
 75
     0
 76
     0
 77
     0
 78
     0
281
     0
 65
     1
110
0.0
120
0.0
130
0.0
111
1.0
121
0.0
131
0.0
112
0.0
122
1.0
132
0.0
 79
     0
146
0.0
  0
ENDTAB
  0
TABLE
  2
LTYPE
  5
5
330
0
100
AcDbSymbolTable
 70
     6
  0
LTYPE
  5
14
330
5
100
AcDbSymbolTableRecord
100
AcDbLinetypeTableRecord
  2
ByBlock
 70
     0
  3

 72
    65
 73
     0
 40
0.0
  0
LTYPE
  5
15
330
5
100
AcDbSymbolTableRecord
100
AcDbLinetypeTableRecord
  2
ByLayer
 70
     0
  3

 72
    65
 73
     0
 40
0.0
  0
LTYPE
  5
16
330
5
100
AcDbSymbolTableRecord
100
AcDbLinetypeTableRecord
  2
Continuous
 70
     0
  3
Solid line
 72
    65
 73
     0
 40
0.0
  0
LTYPE
  5
3F
330
5
100
AcDbSymbolTableRecord
100
AcDbLinetypeTableRecord
  2
HIDDEN
 70
     0
  3
Hidden __ __ __ __ __ __ __ __ __ __ __ __ __ __
 72
    65
 73
     2
 40
1.905
 49
1.27
 74
     0
 49
-0.635
 74
     0
  0
LTYPE
  5
40
330
5
100
AcDbSymbolTableRecord
100
AcDbLinetypeTableRecord
  2
PHANTOM
 70
     0
  3
Phantom ______  __  __  ______  __  __  ______
 72
    65
 73
     6
 40
12.7
 49
6.35
 74
     0
 49
-1.27
 74
     0
 49
1.27
 74
     0
 49
-1.27
 74
     0
 49
1.27
 74
     0
 49
-1.27
 74
     0
  0
LTYPE
  5
41
330
5
100
AcDbSymbolTableRecord
100
AcDbLinetypeTableRecord
  2
CENTER
 70
     0
  3
Center ____ _ ____ _ ____ _ ____ _ ____ _ ____
 72
    65
 73
     4
 40
10.16
 49
6.35
 74
     0
 49
-1.27
 74
     0
 49
1.27
 74
     0
 49
-1.27
 74
     0
  0
LTYPE
  5
42
330
5
100
AcDbSymbolTableRecord
100
AcDbLinetypeTableRecord
  2
CENTERX2
 70
     0
  3
Center (2x) ________  __  ________  __  _____
 72
    65
 73
     4
 40
20.32
 49
12.7
 74
     0
 49
-2.54
 74
     0
 49
2.54
 74
     0
 49
-2.54
 74
     0
  0
LTYPE
  5
43
330
5
100
AcDbSymbolTableRecord
100
AcDbLinetypeTableRecord
  2
DOT2
 70
     0
  3
Dot (.5x) ........................................
 72
    65
 73
     2
 40
0.635
 49
0.0
 74
     0
 49
-0.635
 74
     0
  0
ENDTAB
  0
TABLE
  2
LAYER
  5
2
330
0
100
AcDbSymbolTable
 70
     2
  0
LAYER
  5
10
330
2
100
AcDbSymbolTableRecord
100
AcDbLayerTableRecord
  2
0
 70
     0
 62
     7
  6
Continuous
370
    -3
390
F
  0
LAYER
  5
44
330
2
100
AcDbSymbolTableRecord
100
AcDbLayerTableRecord
  2
SLD-0
 70
     0
 62
   179
  6
Continuous
370
    -3
390
F
  0
ENDTAB
  0
TABLE
  2
STYLE
  5
3
330
0
100
AcDbSymbolTable
 70
     4
  0
STYLE
  5
11
330
3
100
AcDbSymbolTableRecord
100
AcDbTextStyleTableRecord
  2
Standard
 70
     0
 40
0.0
 41
1.0
 50
0.0
 71
     0
 42
2.5
  3
txt
  4

  0
STYLE
  5
45
330
3
100
AcDbSymbolTableRecord
100
AcDbTextStyleTableRecord
  2
SLDTEXTSTYLE0
 70
     0
 40
0.0
 41
0.563
 50
0.0
 71
     0
 42
0.2
  3
TXT
  4

  0
STYLE
  5
47
330
3
100
AcDbSymbolTableRecord
100
AcDbTextStyleTableRecord
  2
SLDTEXTSTYLE1
 70
     0
 40
0.0
 41
0.5668181818
 50
0.0
 71
     0
 42
0.2
  3
TXT
  4

  0
STYLE
  5
BE
330
3
100
AcDbSymbolTableRecord
100
AcDbTextStyleTableRecord
  2
SLDTEXTSTYLE2
 70
     0
 40
0.0
 41
0.605
 50
0.0
 71
     0
 42
0.2
  3
TXT
  4

  0
ENDTAB
  0
TABLE
  2
VIEW
  5
6
330
0
100
AcDbSymbolTable
 70
     0
  0
ENDTAB
  0
TABLE
  2
UCS
  5
7
330
0
100
AcDbSymbolTable
 70
     0
  0
ENDTAB
  0
TABLE
  2
APPID
  5
9
330
0
100
AcDbSymbolTable
 70
     1
  0
APPID
  5
12
330
9
100
AcDbSymbolTableRecord
100
AcDbRegAppTableRecord
  2
ACAD
 70
     0
  0
ENDTAB
  0
TABLE
  2
DIMSTYLE
  5
A
330
0
100
AcDbSymbolTable
 70
     2
100
AcDbDimStyleTable
  0
DIMSTYLE
105
27
330
A
100
AcDbSymbolTableRecord
100
AcDbDimStyleTableRecord
  2
ISO-25
 70
     0
 41
2.5
 42
0.625
 43
3.75
 44
1.25
 73
     0
 74
     0
 77
     1
 78
     8
140
2.5
141
2.5
143
0.0393700787
147
0.625
171
     3
172
     1
178
     0
271
     2
272
     2
274
     3
278
    44
283
     0
284
     8
340
11
  0
DIMSTYLE
105
BF
102
{ACAD_REACTORS
330
BD
102
}
330
A
100
AcDbSymbolTableRecord
100
AcDbDimStyleTableRecord
  2
SLDDIMSTYLE0
 70
     0
 41
4.0
 44
0.0
 45
0.000000001
 73
     0
 74
     0
 77
     1
 78
    12
 79
     3
140
2.5
147
0.625
173
     1
178
     0
271
     2
272
     2
276
     2
284
    12
340
BE
  0
ENDTAB
  0
TABLE
  2
BLOCK_RECORD
  5
1
330
0
100
AcDbSymbolTable
 70
     2
  0
BLOCK_RECORD
  5
1F
330
1
100
AcDbSymbolTableRecord
100
AcDbBlockTableRecord
  2
*Model_Space
340
22
  0
BLOCK_RECORD
  5
1B
330
1
100
AcDbSymbolTableRecord
100
AcDbBlockTableRecord
  2
*Paper_Space
340
1E
  0
BLOCK_RECORD
  5
23
330
1
100
AcDbSymbolTableRecord
100
AcDbBlockTableRecord
  2
*Paper_Space0
340
26
  0
BLOCK_RECORD
  5
C0
330
1
100
AcDbSymbolTableRecord
100
AcDbBlockTableRecord
  2
_D
340
0
  0
ENDTAB
  0
ENDSEC
  0
SECTION
  2
BLOCKS
  0
BLOCK
  5
20
330
1F
100
AcDbEntity
  8
0
100
AcDbBlockBegin
  2
*Model_Space
 70
     0
 10
0.0
 20
0.0
 30
0.0
  3
*Model_Space
  1

  0
ENDBLK
  5
21
330
1F
100
AcDbEntity
  8
0
100
AcDbBlockEnd
  0
BLOCK
  5
1C
330
1B
100
AcDbEntity
 67
     1
  8
0
100
AcDbBlockBegin
  2
*Paper_Space
 70
     0
 10
0.0
 20
0.0
 30
0.0
  3
*Paper_Space
  1

  0
ENDBLK
  5
1D
330
1B
100
AcDbEntity
 67
     1
  8
0
100
AcDbBlockEnd
  0
BLOCK
  5
24
330
23
100
AcDbEntity
  8
0
100
AcDbBlockBegin
  2
*Paper_Space0
 70
     0
 10
0.0
 20
0.0
 30
0.0
  3
*Paper_Space0
  1

  0
ENDBLK
  5
25
330
23
100
AcDbEntity
  8
0
100
AcDbBlockEnd
  0
BLOCK
  5
C1
330
C0
100
AcDbEntity
  8
0
100
AcDbBlockBegin
  2
_D
 70
     0
 10
0.0
 20
0.0
 30
0.0
  3
_D
  1

  0
SOLID
  5
C3
330
C0
100
AcDbEntity
  8
0
  6
Continuous
 62
     7
370
     0
100
AcDbTrace
 10
179.0269748338
 20
233.9483052592
 30
0.0
 11
175.0269748338
 21
234.5483052592
 31
0.0
 12
175.0269748338
 22
233.3483052592
 32
0.0
 13
175.0269748338
 23
233.3483052592
 33
0.0
  0
SOLID
  5
C4
330
C0
100
AcDbEntity
  8
0
  6
Continuous
 62
     7
370
     0
100
AcDbTrace
 10
53.0269748338
 20
233.9483052592
 30
0.0
 11
57.0269748338
 21
233.3483052592
 31
0.0
 12
57.0269748338
 22
234.5483052592
 32
0.0
 13
57.0269748338
 23
234.5483052592
 33
0.0
  0
LINE
  5
C5
330
C0
100
AcDbEntity
  8
0
  6
Continuous
 62
     7
370
     0
100
AcDbLine
 10
179.0269748338
 20
246.0565960533
 30
0.0
 11
179.0269748338
 21
232.9483052592
 31
0.0
  0
LINE
  5
C6
330
C0
100
AcDbEntity
  8
0
  6
Continuous
 62
     7
370
     0
100
AcDbLine
 10
53.0269748338
 20
246.0565960533
 30
0.0
 11
53.0269748338
 21
232.9483052592
 31
0.0
  0
LINE
  5
C7
330
C0
100
AcDbEntity
  8
0
  6
Continuous
 62
     7
370
     0
100
AcDbLine
 10
179.0269748338
 20
233.9483052592
 30
0.0
 11
53.0269748338
 21
233.9483052592
 31
0.0
  0
MTEXT
  5
C8
330
C0
100
AcDbEntity
  8
0
  6
Continuous
 62
     7
370
     0
100
AcDbMText
 10
112.0165582665
 20
237.170974434
 30
-1.4
 40
2.5
 41
0.0
 71
     1
 72
     1
  1
126
  7
SLDTEXTSTYLE2
 73
     1
 44
1.0
  0
ENDBLK
  5
C2
330
C0
100
AcDbEntity
  8
0
100
AcDbBlockEnd
  0
ENDSEC
  0
SECTION
  2
ENTITIES
  0
MTEXT
  5
46
330
1F
100
AcDbEntity
  8
0
  6
Continuous
 62
     7
370
     0
100
AcDbMText
 10
215.1552559959
 20
395.1435015483
 30
0.0
 40
10.0
 41
0.0
 71
     1
 72
     1
  1
F9   CTP 3
  7
SLDTEXTSTYLE0
 73
     1
 44
1.0
  0
MTEXT
  5
48
330
1F
100
AcDbEntity
  8
0
  6
Continuous
 62
     7
370
     0
100
AcDbMText
 10
205.2258080839
 20
30.9737772819
 30
0.0
 40
10.0
 41
0.0
 71
     1
 72
     1
  1
F13   CTP 3
  7
SLDTEXTSTYLE1
 73
     1
 44
1.0
  0
MTEXT
  5
49
330
1F
100
AcDbEntity
  8
0
  6
Continuous
 62
     7
370
     0
100
AcDbMText
 10
68.903062928
 20
30.9737772819
 30
0.0
 40
10.0
 41
0.0
 71
     1
 72
     1
  1
F14   CTP 3
  7
SLDTEXTSTYLE1
 73
     1
 44
1.0
  0
ARC
  5
4A
330
1F
100
AcDbEntity
  8
0
  6
Continuous
 62
     7
370
    15
100
AcDbCircle
 10
141.0269748338
 20
212.0565960533
 30
0.0
 40
4.0
100
AcDbArc
 50
0.0
 51
180.0
  0
LINE
  5
4B
330
1F
100
AcDbEntity
  8
0
  6
Continuous
 62
     7
370
    15
100
AcDbLine
 10
137.0269745507
 20
212.056596164
 30
0.0
 11
137.0269745507
 21
208.0565960904
 31
0.0
  0
ARC
  5
4C
330
1F
100
AcDbEntity
  8
0
  6
Continuous
 62
     7
370
    15
100
AcDbCircle
 10
141.0269748338
 20
208.0565960533
 30
0.0
 40
4.0
100
AcDbArc
 50
180.0
 51
0.0
  0
LINE
  5
4D
330
1F
100
AcDbEntity
  8
0
  6
Continuous
 62
     7
370
    15
100
AcDbLine
 10
145.0269739993
 20
208.0565960904
 30
0.0
 11
145.0269739993
 21
212.056596164
 31
0.0
  0
ARC
  5
4E
330
1F
100
AcDbEntity
  8
0
  6
Continuous
 62
     7
370
    15
100
AcDbCircle
 10
116.0269748338
 20
353.3302049781
 30
0.0
 40
19.99999999999369
100
AcDbArc
 50
27.9614664517
 51
152.0385335483
  0
SPLINE
  5
4F
330
1F
100
AcDbEntity
  8
0
  6
Continuous
 62
     7
370
    15
100
AcDbSpline
210
0.0
220
0.0
230
1.0
 70
     8
 71
     3
 72
    22
 73
    18
 74
     0
 42
0.00000001
 43
0.00000001
 12
1.0
 22
0.0
 32
0.0
 13
1.0
 23
0.0
 33
0.0
 40
215.6472642445105
 40
215.6472642445105
 40
215.6472642445105
 40
215.6472642445105
 40
222.6125783526265
 40
222.6125783526265
 40
244.0906573268319
 40
244.0906573268319
 40
254.8296968139345
 40
254.8296968139345
 40
265.5687363010372
 40
265.5687363010372
 40
284.9909997968634
 40
284.9909997968634
 40
294.7021315447765
 40
294.7021315447765
 40
304.4132632926896
 40
304.4132632926896
 40
312.4424355003839
 40
312.4424355003839
 40
312.4424355003839
 40
312.4424355003839
 10
98.36171222805523
 20
362.7077578075886
 30
0.0
 10
97.28633880972687
 20
360.6819890191525
 30
0.0
 10
96.21965136212246
 20
358.6588650501735
 30
0.0
 10
91.9052458550324
 20
350.4039833501792
 30
0.0
 10
88.74416304074323
 20
344.1861985266438
 30
0.0
 10
84.21023434294777
 20
334.8388184689922
 30
0.0
 10
82.73350269758633
 20
331.7195732914119
 30
0.0
 10
79.85914387758302
 20
325.4667142421913
 30
0.0
 10
78.45701204464677
 20
322.3225357198843
 30
0.0
 10
74.61115652711698
 20
313.4369032719097
 30
0.0
 10
72.24355631921803
 20
307.6546502840563
 30
0.0
 10
68.849134876022
 20
298.905322331296
 30
0.0
 10
67.74382300317899
 20
295.9762239479927
 30
0.0
 10
65.58443962148125
 20
290.0951779077686
 30
0.0
 10
64.5286721979627
 20
287.1399897986176
 30
0.0
 10
62.65575423412834
 20
281.7434504062139
 30
0.0
 10
61.82918139597366
 20
279.3007681950993
 30
0.0
 10
61.02623430823634
 20
276.8574192775075
 30
0.0
  0
ARC
  5
50
330
1F
100
AcDbEntity
  8
0
  6
Continuous
 62
     7
370
    15
100
AcDbCircle
 10
84.7766462181
 20
269.0524250999
 30
0.0
 40
25.00000000003495
100
AcDbArc
 50
161.8081512127
 51
180.0
  0
LINE
  5
51
330
1F
100
AcDbEntity
  8
0
  6
Continuous
 62
     7
370
    15
100
AcDbLine
 10
59.7766447731
 20
269.0524215403
 30
0.0
 11
59.7766447731
 21
259.0565959516
 31
0.0
  0
LINE
  5
52
330
1F
100
AcDbEntity
  8
0
  6
Continuous
 62
     7
370
    15
100
AcDbLine
 10
59.7766447731
 20
259.0565959516
 30
0.0
 11
53.0269738205
 21
259.0565959516
 31
0.0
  0
LINE
  5
53
330
1F
100
AcDbEntity
  8
0
  6
Continuous
 62
     7
370
    15
100
AcDbLine
 10
53.0269738205
 20
259.0565959516
 30
0.0
 11
53.0269738205
 21
247.05659771
 31
0.0
  0
LINE
  5
54
330
1F
100
AcDbEntity
  8
0
  6
Continuous
 62
     7
370
    15
100
AcDbLine
 10
53.0269738205
 20
247.05659771
 30
0.0
 11
59.7766447731
 21
247.05659771
 31
0.0
  0
LINE
  5
55
330
1F
100
AcDbEntity
  8
0
  6
Continuous
 62
     7
370
    15
100
AcDbLine
 10
59.7766447731
 20
247.05659771
 30
0.0
 11
59.7766447731
 21
225.0565959665
 31
0.0
  0
ARC
  5
56
330
1F
100
AcDbEntity
  8
0
  6
Continuous
 62
     7
370
    15
100
AcDbCircle
 10
64.7766462181
 20
225.0565960533
 30
0.0
 40
4.999999999999993
100
AcDbArc
 50
180.0
 51
270.0
  0
LINE
  5
57
330
1F
100
AcDbEntity
  8
0
  6
Continuous
 62
     7
370
    15
100
AcDbLine
 10
167.2773022123
 20
220.0565960783
 30
0.0
 11
64.7766474553
 21
220.0565960783
 31
0.0
  0
ARC
  5
58
330
1F
100
AcDbEntity
  8
0
  6
Continuous
 62
     7
370
    15
100
AcDbCircle
 10
167.2773034495
 20
225.0565960533
 30
0.0
 40
5.0
100
AcDbArc
 50
270.0
 51
0.0
  0
LINE
  5
59
330
1F
100
AcDbEntity
  8
0
  6
Continuous
 62
     7
370
    15
100
AcDbLine
 10
172.2773048945
 20
225.0565959665
 30
0.0
 11
172.2773048945
 21
247.05659771
 31
0.0
  0
LINE
  5
5A
330
1F
100
AcDbEntity
  8
0
  6
Continuous
 62
     7
370
    15
100
AcDbLine
 10
172.2773048945
 20
247.05659771
 30
0.0
 11
179.0269758471
 21
247.05659771
 31
0.0
  0
LINE
  5
5B
330
1F
100
AcDbEntity
  8
0
  6
Continuous
 62
     7
370
    15
100
AcDbLine
 10
179.0269758471
 20
247.05659771
 30
0.0
 11
179.0269758471
 21
259.0565959516
 31
0.0
  0
LINE
  5
5C
330
1F
100
AcDbEntity
  8
0
  6
Continuous
 62
     7
370
    15
100
AcDbLine
 10
179.0269758471
 20
259.0565959516
 30
0.0
 11
172.2773048945
 21
259.0565959516
 31
0.0
  0
LINE
  5
5D
330
1F
100
AcDbEntity
  8
0
  6
Continuous
 62
     7
370
    15
100
AcDbLine
 10
172.2773048945
 20
259.0565959516
 30
0.0
 11
172.2773048945
 21
269.0524215403
 31
0.0
  0
ARC
  5
5E
330
1F
100
AcDbEntity
  8
0
  6
Continuous
 62
     7
370
    15
100
AcDbCircle
 10
147.2773034494
 20
269.0524250999
 30
0.0
 40
25.00000000003428
100
AcDbArc
 50
0.0
 51
18.1918487873
  0
SPLINE
  5
5F
330
1F
100
AcDbEntity
  8
0
  6
Continuous
 62
     7
370
    15
100
AcDbSpline
210
0.0
220
0.0
230
1.0
 70
     8
 71
     3
 72
    22
 73
    18
 74
     0
 42
0.00000001
 43
0.00000001
 12
1.0
 22
0.0
 32
0.0
 13
1.0
 23
0.0
 33
0.0
 40
215.6472642445105
 40
215.6472642445105
 40
215.6472642445105
 40
215.6472642445105
 40
223.6764364522049
 40
223.6764364522049
 40
233.387568200118
 40
233.387568200118
 40
243.0986999480311
 40
243.0986999480311
 40
262.5209634438572
 40
262.5209634438572
 40
273.2600029309599
 40
273.2600029309599
 40
283.9990424180626
 40
283.9990424180626
 40
305.4771213922679
 40
305.4771213922679
 40
312.4424355003831
 40
312.4424355003831
 40
312.4424355003831
 40
312.4424355003831
 10
171.0277153593158
 20
276.8574192775072
 30
0.0
 10
170.2247682715785
 20
279.3007681950988
 30
0.0
 10
169.3981954334238
 20
281.7434504062134
 30
0.0
 10
167.5252774695886
 20
287.1399897986173
 30
0.0
 10
166.46951004607
 20
290.0951779077682
 30
0.0
 10
164.3101266643724
 20
295.9762239479923
 30
0.0
 10
163.2048147915294
 20
298.9053223312956
 30
0.0
 10
159.8103933483343
 20
307.654650284056
 30
0.0
 10
157.4427931404354
 20
313.4369032719093
 30
0.0
 10
153.5969376229057
 20
322.3225357198845
 30
0.0
 10
152.1948057899704
 20
325.4667142421915
 30
0.0
 10
149.3204469699662
 20
331.7195732914117
 30
0.0
 10
147.8437153246048
 20
334.838818468992
 30
0.0
 10
143.3097866268094
 20
344.1861985266436
 30
0.0
 10
140.1487038125212
 20
350.403983350179
 30
0.0
 10
135.8342983054303
 20
358.6588650501729
 30
0.0
 10
134.7676108578259
 20
360.6819890191524
 30
0.0
 10
133.6922374394993
 20
362.7077578075873
 30
0.0
  0
LINE
  5
60
330
1F
100
AcDbEntity
  8
0
  6
Continuous
 62
     7
370
    15
100
AcDbLine
 10
122.5830363959
 20
396.9530592266
 30
0.0
 11
125.6300123327
 21
402.1205584112
 31
0.0
  0
LINE
  5
61
330
1F
100
AcDbEntity
  8
0
  6
Continuous
 62
     7
370
    15
100
AcDbLine
 10
125.1661913388
 20
395.429922134
 30
0.0
 11
122.5830363959
 21
396.9530592266
 31
0.0
  0
LINE
  5
62
330
1F
100
AcDbEntity
  8
0
  6
Continuous
 62
     7
370
    15
100
AcDbLine
 10
128.213727466
 20
400.5983749929
 30
0.0
 11
125.1661913388
 21
395.429922134
 31
0.0
  0
SPLINE
  5
63
330
1F
100
AcDbEntity
  8
0
  6
Continuous
 62
     7
370
    15
100
AcDbSpline
210
0.0
220
0.0
230
1.0
 70
     8
 71
     3
 72
     8
 73
     4
 74
     0
 42
0.00000001
 43
0.00000001
 12
1.0
 22
0.0
 32
0.0
 13
1.0
 23
0.0
 33
0.0
 40
339.351416632345
 40
339.351416632345
 40
339.351416632345
 40
339.351416632345
 40
349.098449941558
 40
349.098449941558
 40
349.098449941558
 40
349.098449941558
 10
135.4309963855287
 20
394.0220536501408
 30
0.0
 10
133.305187734824
 20
396.4990579671096
 30
0.0
 10
130.936701427131
 20
398.7802286522538
 30
0.0
 10
128.2137274821242
 20
400.5983735544729
 30
0.0
  0
LINE
  5
64
330
1F
100
AcDbEntity
  8
0
  6
Continuous
 62
     7
370
    15
100
AcDbLine
 10
130.7722754695
 20
390.2412334982
 30
0.0
 11
135.4309968569
 21
394.0220604244
 31
0.0
  0
LINE
  5
65
330
1F
100
AcDbEntity
  8
0
  6
Continuous
 62
     7
370
    15
100
AcDbLine
 10
132.6636705466
 20
387.9128972593
 30
0.0
 11
130.7722754695
 21
390.2412334982
 31
0.0
  0
LINE
  5
66
330
1F
100
AcDbEntity
  8
0
  6
Continuous
 62
     7
370
    15
100
AcDbLine
 10
137.322391934
 20
391.6937241855
 30
0.0
 11
132.6636705466
 21
387.9128972593
 31
0.0
  0
SPLINE
  5
67
330
1F
100
AcDbEntity
  8
0
  6
Continuous
 62
     7
370
    15
100
AcDbSpline
210
0.0
220
0.0
230
1.0
 70
     8
 71
     3
 72
     8
 73
     4
 74
     0
 42
0.00000001
 43
0.00000001
 12
1.0
 22
0.0
 32
0.0
 13
1.0
 23
0.0
 33
0.0
 40
318.0332673886728
 40
318.0332673886728
 40
318.0332673886728
 40
318.0332673886728
 40
336.3607826303987
 40
336.3607826303987
 40
336.3607826303987
 40
336.3607826303987
 10
146.9513737302836
 20
376.0941883310492
 30
0.0
 10
144.0509750462086
 20
381.4941230857773
 30
0.0
 10
141.0587572289056
 20
386.8487589714255
 30
0.0
 10
137.3223923239232
 20
391.6937279094375
 30
0.0
  0
LINE
  5
68
330
1F
100
AcDbEntity
  8
0
  6
Continuous
 62
     7
370
    15
100
AcDbLine
 10
141.660132996
 20
373.2654134336
 30
0.0
 11
146.9513732858
 21
376.09419027
 31
0.0
  0
LINE
  5
69
330
1F
100
AcDbEntity
  8
0
  6
Continuous
 62
     7
370
    15
100
AcDbLine
 10
143.0751193233
 20
370.6200698915
 30
0.0
 11
141.660132996
 21
373.2654134336
 31
0.0
  0
LINE
  5
6A
330
1F
100
AcDbEntity
  8
0
  6
Continuous
 62
     7
370
    15
100
AcDbLine
 10
148.3663577505
 20
373.4488467279
 30
0.0
 11
143.0751193233
 21
370.6200698915
 31
0.0
  0
SPLINE
  5
6B
330
1F
100
AcDbEntity
  8
0
  6
Continuous
 62
     7
370
    15
100
AcDbSpline
210
0.0
220
0.0
230
1.0
 70
     8
 71
     3
 72
     8
 73
     4
 74
     0
 42
0.00000001
 43
0.00000001
 12
1.0
 22
0.0
 32
0.0
 13
1.0
 23
0.0
 33
0.0
 40
274.2520090678398
 40
274.2520090678398
 40
274.2520090678398
 40
274.2520090678398
 40
315.0425946853886
 40
315.0425946853886
 40
315.0425946853886
 40
315.0425946853886
 10
166.6974872092191
 20
337.0113450144486
 30
0.0
 10
160.9979745504305
 20
349.3425653346087
 30
0.0
 10
154.7835022954322
 20
361.4179509406227
 30
0.0
 10
148.3663593915917
 20
373.4488505871
 30
0.0
  0
LINE
  5
6C
330
1F
100
AcDbEntity
  8
0
  6
Continuous
 62
     7
370
    15
100
AcDbLine
 10
161.2431216903
 20
334.5105926099
 30
0.0
 11
166.6974868544
 21
337.011350185
 31
0.0
  0
LINE
  5
6D
330
1F
100
AcDbEntity
  8
0
  6
Continuous
 62
     7
370
    15
100
AcDbLine
 10
162.4931838282
 20
331.7834565941
 30
0.0
 11
161.2431216903
 21
334.5105926099
 31
0.0
  0
LINE
  5
6E
330
1F
100
AcDbEntity
  8
0
  6
Continuous
 62
     7
370
    15
100
AcDbLine
 10
167.9475489922
 20
334.2841992679
 30
0.0
 11
162.4931838282
 21
331.7834565941
 31
0.0
  0
SPLINE
  5
6F
330
1F
100
AcDbEntity
  8
0
  6
Continuous
 62
     7
370
    15
100
AcDbSpline
210
0.0
220
0.0
230
1.0
 70
     8
 71
     3
 72
     8
 73
     4
 74
     0
 42
0.00000001
 43
0.00000001
 12
1.0
 22
0.0
 32
0.0
 13
1.0
 23
0.0
 33
0.0
 40
228.9917198398856
 40
228.9917198398856
 40
228.9917198398856
 40
228.9917198398856
 40
271.2496181055172
 40
271.2496181055172
 40
271.2496181055172
 40
271.2496181055172
 10
183.7865422592032
 20
295.1040279568949
 30
0.0
 10
179.0339659162912
 20
308.3757353553547
 30
0.0
 10
173.7723028918912
 20
321.469624514679
 30
0.0
 10
167.9475488286058
 20
334.2841993824296
 30
0.0
  0
LINE
  5
70
330
1F
100
AcDbEntity
  8
0
  6
Continuous
 62
     7
370
    15
100
AcDbLine
 10
178.1323846348
 20
293.0969203416
 30
0.0
 11
183.7865408428
 21
295.104024798
 31
0.0
  0
LINE
  5
71
330
1F
100
AcDbEntity
  8
0
  6
Continuous
 62
     7
370
    15
100
AcDbLine
 10
179.1361268528
 20
290.2698198858
 30
0.0
 11
178.1323846348
 21
293.0969203416
 31
0.0
  0
LINE
  5
72
330
1F
100
AcDbEntity
  8
0
  6
Continuous
 62
     7
370
    15
100
AcDbLine
 10
184.7902830608
 20
292.2769317928
 30
0.0
 11
179.1361268528
 21
290.2698198858
 31
0.0
  0
SPLINE
  5
73
330
1F
100
AcDbEntity
  8
0
  6
Continuous
 62
     7
370
    15
100
AcDbSpline
210
0.0
220
0.0
230
1.0
 70
     8
 71
     3
 72
     8
 73
     4
 74
     0
 42
0.00000001
 43
0.00000001
 12
1.0
 22
0.0
 32
0.0
 13
1.0
 23
0.0
 33
0.0
 40
187.6644812610661
 40
187.6644812610661
 40
187.6644812610661
 40
187.6644812610661
 40
225.9939894001979
 40
225.9939894001979
 40
225.9939894001979
 40
225.9939894001979
 10
195.9279858974428
 20
255.5998519249578
 30
0.0
 10
192.8508643126966
 20
268.0101791096302
 30
0.0
 10
189.0352476561461
 20
280.2163645695186
 30
0.0
 10
184.7902831204048
 20
292.2769291405093
 30
0.0
  0
LINE
  5
74
330
1F
100
AcDbEntity
  8
0
  6
Continuous
 62
     7
370
    15
100
AcDbLine
 10
190.0976072915
 20
254.1837374273
 30
0.0
 11
195.9279846318
 21
255.5998506549
 31
0.0
  0
LINE
  5
75
330
1F
100
AcDbEntity
  8
0
  6
Continuous
 62
     7
370
    15
100
AcDbLine
 10
190.8057626255
 20
251.2685264054
 30
0.0
 11
190.0976072915
 21
254.1837374273
 31
0.0
  0
LINE
  5
76
330
1F
100
AcDbEntity
  8
0
  6
Continuous
 62
     7
370
    15
100
AcDbLine
 10
196.6361474164
 20
252.684639633
 30
0.0
 11
190.8057626255
 21
251.2685264054
 31
0.0
  0
SPLINE
  5
77
330
1F
100
AcDbEntity
  8
0
  6
Continuous
 62
     7
370
    15
100
AcDbSpline
210
0.0
220
0.0
230
1.0
 70
     8
 71
     3
 72
     8
 73
     4
 74
     0
 42
0.00000001
 43
0.00000001
 12
1.0
 22
0.0
 32
0.0
 13
1.0
 23
0.0
 33
0.0
 40
148.5516770763957
 40
148.5516770763957
 40
148.5516770763957
 40
148.5516770763957
 40
184.6671329440826
 40
184.6671329440826
 40
184.6671329440826
 40
184.6671329440826
 10
202.1709532698094
 20
216.9898811626991
 30
0.0
 10
201.5150273686028
 20
229.0548262214601
 30
0.0
 10
199.424084770932
 20
240.9608826389911
 30
0.0
 10
196.6361438573096
 20
252.6846399422807
 30
0.0
  0
LINE
  5
78
330
1F
100
AcDbEntity
  8
0
  6
Continuous
 62
     7
370
    15
100
AcDbLine
 10
196.1769681342
 20
216.7239243689
 30
0.0
 11
202.1709527739
 21
216.9898812252
 31
0.0
  0
LINE
  5
79
330
1F
100
AcDbEntity
  8
0
  6
Continuous
 62
     7
370
    15
100
AcDbLine
 10
196.3098417886
 20
213.7269069034
 30
0.0
 11
196.1769681342
 21
216.7239243689
 31
0.0
  0
LINE
  5
7A
330
1F
100
AcDbEntity
  8
0
  6
Continuous
 62
     7
370
    15
100
AcDbLine
 10
202.3038264282
 20
213.992863294
 30
0.0
 11
196.3098417886
 21
213.7269069034
 31
0.0
  0
SPLINE
  5
7B
330
1F
100
AcDbEntity
  8
0
  6
Continuous
 62
     7
370
    15
100
AcDbSpline
210
0.0
220
0.0
230
1.0
 70
     8
 71
     3
 72
     8
 73
     4
 74
     0
 42
0.00000001
 43
0.00000001
 12
1.0
 22
0.0
 32
0.0
 13
1.0
 23
0.0
 33
0.0
 40
112.2404631165935
 40
112.2404631165935
 40
112.2404631165935
 40
112.2404631165935
 40
145.5644191386646
 40
145.5644191386646
 40
145.5644191386646
 40
145.5644191386646
 10
198.8464018026495
 20
180.823559727814
 30
0.0
 10
201.7845446268039
 20
191.5754530371545
 30
0.0
 10
202.6849998907189
 20
202.8375600948203
 30
0.0
 10
202.303829218943
 20
213.9928633691956
 30
0.0
  0
LINE
  5
7C
330
1F
100
AcDbEntity
  8
0
  6
Continuous
 62
     7
370
    15
100
AcDbLine
 10
193.086459852
 20
182.5038584474
 30
0.0
 11
198.8463994034
 21
180.8235588077
 31
0.0
  0
LINE
  5
7D
330
1F
100
AcDbEntity
  8
0
  6
Continuous
 62
     7
370
    15
100
AcDbLine
 10
192.2463919886
 20
179.6239929798
 30
0.0
 11
193.086459852
 21
182.5038584474
 31
0.0
  0
LINE
  5
7E
330
1F
100
AcDbEntity
  8
0
  6
Continuous
 62
     7
370
    15
100
AcDbLine
 10
198.0063315399
 20
177.9436933401
 30
0.0
 11
192.2463919886
 21
179.6239929798
 31
0.0
  0
SPLINE
  5
7F
330
1F
100
AcDbEntity
  8
0
  6
Continuous
 62
     7
370
    15
100
AcDbSpline
210
0.0
220
0.0
230
1.0
 70
     8
 71
     3
 72
     8
 73
     4
 74
     0
 42
0.00000001
 43
0.00000001
 12
1.0
 22
0.0
 32
0.0
 13
1.0
 23
0.0
 33
0.0
 40
77.511475573591
 40
77.511475573591
 40
77.511475573591
 40
77.511475573591
 40
109.252023775547
 40
109.252023775547
 40
109.252023775547
 40
109.252023775547
 10
183.3170178305661
 20
149.7631790715423
 30
0.0
 10
189.842981696678
 20
158.1672520187335
 30
0.0
 10
194.8561231579913
 20
167.794947243026
 30
0.0
 10
198.0063346379419
 20
177.9436940966224
 30
0.0
  0
LINE
  5
80
330
1F
100
AcDbEntity
  8
0
  6
Continuous
 62
     7
370
    15
100
AcDbLine
 10
178.6421235569
 20
153.5246873799
 30
0.0
 11
183.3170201548
 21
149.7631798092
 31
0.0
  0
LINE
  5
81
330
1F
100
AcDbEntity
  8
0
  6
Continuous
 62
     7
370
    15
100
AcDbLine
 10
176.7616789706
 20
151.1873247626
 30
0.0
 11
178.6421235569
 21
153.5246873799
 31
0.0
  0
LINE
  5
82
330
1F
100
AcDbEntity
  8
0
  6
Continuous
 62
     7
370
    15
100
AcDbLine
 10
181.4365755685
 20
147.4258171919
 30
0.0
 11
176.7616789706
 21
151.1873247626
 31
0.0
  0
SPLINE
  5
83
330
1F
100
AcDbEntity
  8
0
  6
Continuous
 62
     7
370
    15
100
AcDbSpline
210
0.0
220
0.0
230
1.0
 70
     8
 71
     3
 72
     8
 73
     4
 74
     0
 42
0.00000001
 43
0.00000001
 12
1.0
 22
0.0
 32
0.0
 13
1.0
 23
0.0
 33
0.0
 40
39.88945431050338
 40
39.88945431050338
 40
39.88945431050338
 40
39.88945431050338
 40
74.5273602687759
 40
74.5273602687759
 40
74.5273602687759
 40
74.5273602687759
 10
154.5303529265553
 20
125.56117657339
 30
0.0
 10
164.8254718447174
 20
131.1083609714124
 30
0.0
 10
174.0082047332441
 20
138.5114009881382
 30
0.0
 10
181.4365757413048
 20
147.4258154452636
 30
0.0
  0
LINE
  5
84
330
1F
100
AcDbEntity
  8
0
  6
Continuous
 62
     7
370
    15
100
AcDbLine
 10
151.7681550153
 20
130.8875287476
 30
0.0
 11
154.5303534635
 21
125.5611757341
 31
0.0
  0
LINE
  5
85
330
1F
100
AcDbEntity
  8
0
  6
Continuous
 62
     7
370
    15
100
AcDbLine
 10
149.1050716408
 20
129.5064295235
 30
0.0
 11
151.7681550153
 21
130.8875287476
 31
0.0
  0
LINE
  5
86
330
1F
100
AcDbEntity
  8
0
  6
Continuous
 62
     7
370
    15
100
AcDbLine
 10
151.867270089
 20
124.18007651
 30
0.0
 11
149.1050716408
 21
129.5064295235
 31
0.0
  0
SPLINE
  5
87
330
1F
100
AcDbEntity
  8
0
  6
Continuous
 62
     7
370
    15
100
AcDbSpline
210
0.0
220
0.0
230
1.0
 70
     8
 71
     3
 72
     8
 73
     4
 74
     0
 42
0.00000001
 43
0.00000001
 12
1.0
 22
0.0
 32
0.0
 13
1.0
 23
0.0
 33
0.0
 40
1.499755231990901
 40
1.499755231990901
 40
1.499755231990901
 40
1.499755231990901
 40
36.92965442440206
 40
36.92965442440206
 40
36.92965442440206
 40
36.92965442440206
 10
117.526881588065
 20
115.2278723619084
 30
0.0
 10
129.3385849514972
 20
115.490634731655
 30
0.0
 10
141.1477936744887
 20
118.8342864961935
 30
0.0
 10
151.8672702705762
 20
124.1800793513784
 30
0.0
  0
LINE
  5
88
330
1F
100
AcDbEntity
  8
0
  6
Continuous
 62
     7
370
    15
100
AcDbLine
 10
117.5268815981
 20
121.2278733555
 30
0.0
 11
117.5268815981
 21
115.2278686467
 31
0.0
  0
LINE
  5
89
330
1F
100
AcDbEntity
  8
0
  6
Continuous
 62
     7
370
    15
100
AcDbLine
 10
114.5270680694
 20
121.2278733555
 30
0.0
 11
117.5268815981
 21
121.2278733555
 31
0.0
  0
LINE
  5
8A
330
1F
100
AcDbEntity
  8
0
  6
Continuous
 62
     7
370
    15
100
AcDbLine
 10
114.5270680694
 20
115.2278686467
 30
0.0
 11
114.5270680694
 21
121.2278733555
 31
0.0
  0
SPLINE
  5
8B
330
1F
100
AcDbEntity
  8
0
  6
Continuous
 62
     7
370
    15
100
AcDbSpline
210
0.0
220
0.0
230
1.0
 70
     8
 71
     3
 72
     8
 73
     4
 74
     0
 42
0.00000001
 43
0.00000001
 12
1.0
 22
0.0
 32
0.0
 13
1.0
 23
0.0
 33
0.0
 40
325.0344807565784
 40
325.0344807565784
 40
325.0344807565784
 40
325.0344807565784
 40
360.4643799489879
 40
360.4643799489879
 40
360.4643799489879
 40
360.4643799489879
 10
80.18667939697704
 20
124.180079351377
 30
0.0
 10
90.90615599306442
 20
118.8342864961928
 30
0.0
 10
102.7153647160561
 20
115.490634731655
 30
0.0
 10
114.5270680794879
 20
115.2278723619084
 30
0.0
  0
LINE
  5
8C
330
1F
100
AcDbEntity
  8
0
  6
Continuous
 62
     7
370
    15
100
AcDbLine
 10
82.9488780268
 20
129.5064295235
 30
0.0
 11
80.1866795786
 21
124.18007651
 31
0.0
  0
LINE
  5
8D
330
1F
100
AcDbEntity
  8
0
  6
Continuous
 62
     7
370
    15
100
AcDbLine
 10
80.2857946523
 20
130.8875287476
 30
0.0
 11
82.9488780268
 21
129.5064295235
 31
0.0
  0
LINE
  5
8E
330
1F
100
AcDbEntity
  8
0
  6
Continuous
 62
     7
370
    15
100
AcDbLine
 10
77.5235962041
 20
125.5611757341
 30
0.0
 11
80.2857946523
 21
130.8875287476
 31
0.0
  0
SPLINE
  5
8F
330
1F
100
AcDbEntity
  8
0
  6
Continuous
 62
     7
370
    15
100
AcDbSpline
210
0.0
220
0.0
230
1.0
 70
     8
 71
     3
 72
     8
 73
     4
 74
     0
 42
0.00000001
 43
0.00000001
 12
1.0
 22
0.0
 32
0.0
 13
1.0
 23
0.0
 33
0.0
 40
287.4367749122025
 40
287.4367749122025
 40
287.4367749122025
 40
287.4367749122025
 40
322.0746808704765
 40
322.0746808704765
 40
322.0746808704765
 40
322.0746808704765
 10
50.61737392624707
 20
147.4258154452627
 30
0.0
 10
58.04574493430762
 20
138.511400988137
 30
0.0
 10
67.22847782283453
 20
131.108360971411
 30
0.0
 10
77.52359674099726
 20
125.5611765733888
 30
0.0
  0
LINE
  5
90
330
1F
100
AcDbEntity
  8
0
  6
Continuous
 62
     7
370
    15
100
AcDbLine
 10
55.2922706969
 20
151.1873247626
 30
0.0
 11
50.6173740991
 21
147.4258171919
 31
0.0
  0
LINE
  5
91
330
1F
100
AcDbEntity
  8
0
  6
Continuous
 62
     7
370
    15
100
AcDbLine
 10
53.4118261107
 20
153.5246873799
 30
0.0
 11
55.2922706969
 21
151.1873247626
 31
0.0
  0
LINE
  5
92
330
1F
100
AcDbEntity
  8
0
  6
Continuous
 62
     7
370
    15
100
AcDbLine
 10
48.7369295128
 20
149.7631798092
 30
0.0
 11
53.4118261107
 21
153.5246873799
 31
0.0
  0
SPLINE
  5
93
330
1F
100
AcDbEntity
  8
0
  6
Continuous
 62
     7
370
    15
100
AcDbSpline
210
0.0
220
0.0
230
1.0
 70
     8
 71
     3
 72
     8
 73
     4
 74
     0
 42
0.00000001
 43
0.00000001
 12
1.0
 22
0.0
 32
0.0
 13
1.0
 23
0.0
 33
0.0
 40
252.7121114054307
 40
252.7121114054307
 40
252.7121114054307
 40
252.7121114054307
 40
284.4526596073878
 40
284.4526596073878
 40
284.4526596073878
 40
284.4526596073878
 10
34.04761502961076
 20
177.9436940966218
 30
0.0
 10
37.19782650956152
 20
167.7949472430252
 30
0.0
 10
42.21096797087441
 20
158.1672520187324
 30
0.0
 10
48.7369318369862
 20
149.7631790715411
 30
0.0
  0
LINE
  5
94
330
1F
100
AcDbEntity
  8
0
  6
Continuous
 62
     7
370
    15
100
AcDbLine
 10
39.807557679
 20
179.6239929798
 30
0.0
 11
34.0476181276
 21
177.9436933401
 31
0.0
  0
LINE
  5
95
330
1F
100
AcDbEntity
  8
0
  6
Continuous
 62
     7
370
    15
100
AcDbLine
 10
38.9674898155
 20
182.5038584474
 30
0.0
 11
39.807557679
 21
179.6239929798
 31
0.0
  0
LINE
  5
96
330
1F
100
AcDbEntity
  8
0
  6
Continuous
 62
     7
370
    15
100
AcDbLine
 10
33.2075502642
 20
180.8235588077
 30
0.0
 11
38.9674898155
 21
182.5038584474
 31
0.0
  0
SPLINE
  5
97
330
1F
100
AcDbEntity
  8
0
  6
Continuous
 62
     7
370
    15
100
AcDbSpline
210
0.0
220
0.0
230
1.0
 70
     8
 71
     3
 72
     8
 73
     4
 74
     0
 42
0.00000001
 43
0.00000001
 12
1.0
 22
0.0
 32
0.0
 13
1.0
 23
0.0
 33
0.0
 40
216.399716042311
 40
216.399716042311
 40
216.399716042311
 40
216.399716042311
 40
249.7236720643839
 40
249.7236720643839
 40
249.7236720643839
 40
249.7236720643839
 10
29.75012044860767
 20
213.9928633691969
 30
0.0
 10
29.36894977683253
 20
202.837560094821
 30
0.0
 10
30.26940504074839
 20
191.5754530371547
 30
0.0
 10
33.20754786490306
 20
180.8235597278137
 30
0.0
  0
LINE
  5
98
330
1F
100
AcDbEntity
  8
0
  6
Continuous
 62
     7
370
    15
100
AcDbLine
 10
35.744107879
 20
213.7269069034
 30
0.0
 11
29.7501232393
 21
213.992863294
 31
0.0
  0
LINE
  5
99
330
1F
100
AcDbEntity
  8
0
  6
Continuous
 62
     7
370
    15
100
AcDbLine
 10
35.8769815333
 20
216.7239243689
 30
0.0
 11
35.744107879
 21
213.7269069034
 31
0.0
  0
LINE
  5
9A
330
1F
100
AcDbEntity
  8
0
  6
Continuous
 62
     7
370
    15
100
AcDbLine
 10
29.8829968937
 20
216.9898812252
 30
0.0
 11
35.8769815333
 21
216.7239243689
 31
0.0
  0
SPLINE
  5
9B
330
1F
100
AcDbEntity
  8
0
  6
Continuous
 62
     7
370
    15
100
AcDbSpline
210
0.0
220
0.0
230
1.0
 70
     8
 71
     3
 72
     8
 73
     4
 74
     0
 42
0.00000001
 43
0.00000001
 12
1.0
 22
0.0
 32
0.0
 13
1.0
 23
0.0
 33
0.0
 40
177.2970022368897
 40
177.2970022368897
 40
177.2970022368897
 40
177.2970022368897
 40
213.4124581045775
 40
213.4124581045775
 40
213.4124581045775
 40
213.4124581045775
 10
35.41780581023955
 20
252.6846399422853
 30
0.0
 10
32.6298648966168
 20
240.9608826389953
 30
0.0
 10
30.53892229894685
 20
229.0548262214639
 30
0.0
 10
29.88299639774111
 20
216.9898811627027
 30
0.0
  0
LINE
  5
9C
330
1F
100
AcDbEntity
  8
0
  6
Continuous
 62
     7
370
    15
100
AcDbLine
 10
41.248187042
 20
251.2685264054
 30
0.0
 11
35.4178022512
 21
252.684639633
 31
0.0
  0
LINE
  5
9D
330
1F
100
AcDbEntity
  8
0
  6
Continuous
 62
     7
370
    15
100
AcDbLine
 10
41.956342376
 20
254.1837374273
 30
0.0
 11
41.248187042
 21
251.2685264054
 31
0.0
  0
LINE
  5
9E
330
1F
100
AcDbEntity
  8
0
  6
Continuous
 62
     7
370
    15
100
AcDbLine
 10
36.1259650357
 20
255.5998506549
 30
0.0
 11
41.956342376
 21
254.1837374273
 31
0.0
  0
SPLINE
  5
9F
330
1F
100
AcDbEntity
  8
0
  6
Continuous
 62
     7
370
    15
100
AcDbSpline
210
0.0
220
0.0
230
1.0
 70
     8
 71
     3
 72
     8
 73
     4
 74
     0
 42
0.00000001
 43
0.00000001
 12
1.0
 22
0.0
 32
0.0
 13
1.0
 23
0.0
 33
0.0
 40
135.9701457807862
 40
135.9701457807862
 40
135.9701457807862
 40
135.9701457807862
 40
174.2996539199202
 40
174.2996539199202
 40
174.2996539199202
 40
174.2996539199202
 10
47.26366654714416
 20
292.2769291405026
 30
0.0
 10
43.01870201140181
 20
280.2163645695111
 30
0.0
 10
39.20308535484941
 20
268.0101791096221
 30
0.0
 10
36.12596377010305
 20
255.5998519249487
 30
0.0
  0
LINE
  5
A0
330
1F
100
AcDbEntity
  8
0
  6
Continuous
 62
     7
370
    15
100
AcDbLine
 10
52.9178228148
 20
290.2698198858
 30
0.0
 11
47.2636666067
 21
292.2769317928
 31
0.0
  0
LINE
  5
A1
330
1F
100
AcDbEntity
  8
0
  6
Continuous
 62
     7
370
    15
100
AcDbLine
 10
53.9215650328
 20
293.0969203416
 30
0.0
 11
52.9178228148
 21
290.2698198858
 31
0.0
  0
LINE
  5
A2
330
1F
100
AcDbEntity
  8
0
  6
Continuous
 62
     7
370
    15
100
AcDbLine
 10
48.2674088247
 20
295.104024798
 30
0.0
 11
53.9215650328
 21
293.0969203416
 31
0.0
  0
SPLINE
  5
A3
330
1F
100
AcDbEntity
  8
0
  6
Continuous
 62
     7
370
    15
100
AcDbSpline
210
0.0
220
0.0
230
1.0
 70
     8
 71
     3
 72
     8
 73
     4
 74
     0
 42
0.00000001
 43
0.00000001
 12
1.0
 22
0.0
 32
0.0
 13
1.0
 23
0.0
 33
0.0
 40
90.71451707545914
 40
90.71451707545914
 40
90.71451707545914
 40
90.71451707545914
 40
132.9724153410949
 40
132.9724153410949
 40
132.9724153410949
 40
132.9724153410949
 10
64.10640083894496
 20
334.2841993824307
 30
0.0
 10
58.28164677566075
 20
321.4696245146786
 30
0.0
 10
53.01998375126049
 20
308.3757353553529
 30
0.0
 10
48.26740740834713
 20
295.1040279568917
 30
0.0
  0
LINE
  5
A4
330
1F
100
AcDbEntity
  8
0
  6
Continuous
 62
     7
370
    15
100
AcDbLine
 10
69.5607658394
 20
331.7834565941
 30
0.0
 11
64.1064006753
 21
334.2841992679
 31
0.0
  0
LINE
  5
A5
330
1F
100
AcDbEntity
  8
0
  6
Continuous
 62
     7
370
    15
100
AcDbLine
 10
70.8108279772
 20
334.5105926099
 30
0.0
 11
69.5607658394
 21
331.7834565941
 31
0.0
  0
LINE
  5
A6
330
1F
100
AcDbEntity
  8
0
  6
Continuous
 62
     7
370
    15
100
AcDbLine
 10
65.3564628132
 20
337.011350185
 30
0.0
 11
70.8108279772
 21
334.5105926099
 31
0.0
  0
SPLINE
  5
A7
330
1F
100
AcDbEntity
  8
0
  6
Continuous
 62
     7
370
    15
100
AcDbSpline
210
0.0
220
0.0
230
1.0
 70
     8
 71
     3
 72
     8
 73
     4
 74
     0
 42
0.00000001
 43
0.00000001
 12
1.0
 22
0.0
 32
0.0
 13
1.0
 23
0.0
 33
0.0
 40
46.92154049558611
 40
46.92154049558611
 40
46.92154049558611
 40
46.92154049558611
 40
87.71212611314049
 40
87.71212611314049
 40
87.71212611314049
 40
87.71212611314049
 10
83.68759027595578
 20
373.4488505871029
 30
0.0
 10
77.27044737211317
 20
361.4179509406238
 30
0.0
 10
71.05597511711711
 20
349.3425653346081
 30
0.0
 10
65.35646245832962
 20
337.0113450144461
 30
0.0
  0
LINE
  5
A8
330
1F
100
AcDbEntity
  8
0
  6
Continuous
 62
     7
370
    15
100
AcDbLine
 10
88.9788303442
 20
370.6200698915
 30
0.0
 11
83.6875919171
 21
373.4488467279
 31
0.0
  0
LINE
  5
A9
330
1F
100
AcDbEntity
  8
0
  6
Continuous
 62
     7
370
    15
100
AcDbLine
 10
90.3938166715
 20
373.2654134336
 30
0.0
 11
88.9788303442
 21
370.6200698915
 31
0.0
  0
LINE
  5
AA
330
1F
100
AcDbEntity
  8
0
  6
Continuous
 62
     7
370
    15
100
AcDbLine
 10
85.1025763817
 20
376.09419027
 30
0.0
 11
90.3938166715
 21
373.2654134336
 31
0.0
  0
SPLINE
  5
AB
330
1F
100
AcDbEntity
  8
0
  6
Continuous
 62
     7
370
    15
100
AcDbSpline
210
0.0
220
0.0
230
1.0
 70
     8
 71
     3
 72
     8
 73
     4
 74
     0
 42
0.00000001
 43
0.00000001
 12
1.0
 22
0.0
 32
0.0
 13
1.0
 23
0.0
 33
0.0
 40
25.60335255057654
 40
25.60335255057654
 40
25.60335255057654
 40
25.60335255057654
 40
43.93086779230061
 40
43.93086779230061
 40
43.93086779230061
 40
43.93086779230061
 10
94.73155734362706
 20
391.69372790944
 30
0.0
 10
90.99519243864471
 20
386.8487589714285
 30
0.0
 10
88.00297462134029
 20
381.494123085781
 30
0.0
 10
85.10257593726482
 20
376.0941883310534
 30
0.0
  0
LINE
  5
AC
330
1F
100
AcDbEntity
  8
0
  6
Continuous
 62
     7
370
    15
100
AcDbLine
 10
99.390279121
 20
387.9128972593
 30
0.0
 11
94.7315577336
 21
391.6937241855
 31
0.0
  0
LINE
  5
AD
330
1F
100
AcDbEntity
  8
0
  6
Continuous
 62
     7
370
    15
100
AcDbLine
 10
101.2816741981
 20
390.2412334982
 30
0.0
 11
99.390279121
 21
387.9128972593
 31
0.0
  0
LINE
  5
AE
330
1F
100
AcDbEntity
  8
0
  6
Continuous
 62
     7
370
    15
100
AcDbLine
 10
96.6229528107
 20
394.0220604244
 30
0.0
 11
101.2816741981
 21
390.2412334982
 31
0.0
  0
SPLINE
  5
AF
330
1F
100
AcDbEntity
  8
0
  6
Continuous
 62
     7
370
    15
100
AcDbSpline
210
0.0
220
0.0
230
1.0
 70
     8
 71
     3
 72
     8
 73
     4
 74
     0
 42
0.00000001
 43
0.00000001
 12
1.0
 22
0.0
 32
0.0
 13
1.0
 23
0.0
 33
0.0
 40
12.8656852394145
 40
12.8656852394145
 40
12.8656852394145
 40
12.8656852394145
 40
22.61271854862973
 40
22.61271854862973
 40
22.61271854862973
 40
22.61271854862973
 10
103.8402221854277
 20
400.5983735544764
 30
0.0
 10
101.1172482404202
 20
398.7802286522574
 30
0.0
 10
98.74876193272705
 20
396.499057967113
 30
0.0
 10
96.62295328202187
 20
394.0220536501436
 30
0.0
  0
LINE
  5
B0
330
1F
100
AcDbEntity
  8
0
  6
Continuous
 62
     7
370
    15
100
AcDbLine
 10
106.8877583288
 20
395.429922134
 30
0.0
 11
103.8402222015
 21
400.5983749929
 31
0.0
  0
LINE
  5
B1
330
1F
100
AcDbEntity
  8
0
  6
Continuous
 62
     7
370
    15
100
AcDbLine
 10
109.4709132716
 20
396.9530592266
 30
0.0
 11
106.8877583288
 21
395.429922134
 31
0.0
  0
LINE
  5
B2
330
1F
100
AcDbEntity
  8
0
  6
Continuous
 62
     7
370
    15
100
AcDbLine
 10
106.4239373349
 20
402.1205584112
 30
0.0
 11
109.4709132716
 21
396.9530592266
 31
0.0
  0
SPLINE
  5
B3
330
1F
100
AcDbEntity
  8
0
  6
Continuous
 62
     7
370
    15
100
AcDbSpline
210
0.0
220
0.0
230
1.0
 70
     8
 71
     3
 72
     8
 73
     4
 74
     0
 42
0.00000001
 43
0.00000001
 12
1.0
 22
0.0
 32
0.0
 13
1.0
 23
0.0
 33
0.0
 40
1.498703415678222
 40
1.498703415678222
 40
1.498703415678222
 40
1.498703415678222
 40
9.902049775422368
 40
9.902049775422368
 40
9.902049775422368
 40
9.902049775422368
 10
114.5283600761932
 20
404.5468045447948
 30
0.0
 10
111.7298297065303
 20
404.3083515917122
 30
0.0
 10
108.9575015151602
 20
403.4221158332576
 30
0.0
 10
106.4239375281425
 20
402.1205588711644
 30
0.0
  0
LINE
  5
B4
330
1F
100
AcDbEntity
  8
0
  6
Continuous
 62
     7
370
    15
100
AcDbLine
 10
114.5283600467
 20
398.5467980209
 30
0.0
 11
114.5283600467
 21
404.5468101802
 31
0.0
  0
LINE
  5
B5
330
1F
100
AcDbEntity
  8
0
  6
Continuous
 62
     7
370
    15
100
AcDbLine
 10
117.5255896209
 20
398.5467980209
 30
0.0
 11
114.5283600467
 21
398.5467980209
 31
0.0
  0
LINE
  5
B6
330
1F
100
AcDbEntity
  8
0
  6
Continuous
 62
     7
370
    15
100
AcDbLine
 10
117.5255896209
 20
404.5468101802
 30
0.0
 11
117.5255896209
 21
398.5467980209
 31
0.0
  0
SPLINE
  5
B7
330
1F
100
AcDbEntity
  8
0
  6
Continuous
 62
     7
370
    15
100
AcDbSpline
210
0.0
220
0.0
230
1.0
 70
     8
 71
     3
 72
     8
 73
     4
 74
     0
 42
0.00000001
 43
0.00000001
 12
1.0
 22
0.0
 32
0.0
 13
1.0
 23
0.0
 33
0.0
 40
352.0620854055505
 40
352.0620854055505
 40
352.0620854055505
 40
352.0620854055505
 40
360.4654317652927
 40
360.4654317652927
 40
360.4654317652927
 40
360.4654317652927
 10
125.6300121394092
 20
402.1205588711616
 30
0.0
 10
123.0964481523921
 20
403.4221158332551
 30
0.0
 10
120.3241199610229
 20
404.3083515917103
 30
0.0
 10
117.5255895913606
 20
404.5468045447941
 30
0.0
  0
SPLINE
  5
B8
330
1F
100
AcDbEntity
  8
0
  6
Continuous
 62
     7
370
    15
100
AcDbSpline
210
0.0
220
0.0
230
1.0
 70
     8
 71
     3
 72
    32
 73
    28
 74
     0
 42
0.00000001
 43
0.00000001
 12
1.0
 22
0.0
 32
0.0
 13
1.0
 23
0.0
 33
0.0
 40
0.0
 40
0.0
 40
0.0
 40
0.0
 40
13.61675065061498
 40
13.61675065061498
 40
27.23350130122996
 40
27.23350130122996
 40
36.40935848665027
 40
36.40935848665027
 40
42.77353824410481
 40
42.77353824410481
 40
49.13771800155934
 40
49.13771800155934
 40
61.86607751646842
 40
61.86607751646842
 40
74.26092172759391
 40
74.26092172759391
 40
80.92622969125873
 40
80.92622969125873
 40
87.59153765492354
 40
87.59153765492354
 40
100.9221535822532
 40
100.9221535822532
 40
107.9206337146196
 40
107.9206337146196
 40
113.5332768127742
 40
113.5332768127742
 40
116.5952178155855
 40
116.5952178155855
 40
116.5952178155855
 40
116.5952178155855
 10
116.0269748337772
 20
133.2111472695669
 30
0.0
 10
119.3449302641742
 20
133.2111472695672
 30
0.0
 10
122.7568913996573
 20
133.5497783020355
 30
0.0
 10
129.655320306415
 20
134.8747537722662
 30
0.0
 10
133.1402112912763
 20
135.8615176810981
 30
0.0
 10
138.9002202048826
 20
137.9990654761756
 30
0.0
 10
141.1988691573785
 20
138.990931033628
 30
0.0
 10
145.0138085273658
 20
140.8668672240332
 30
0.0
 10
146.5530085124061
 20
141.690024099298
 30
0.0
 10
149.558936980162
 20
143.431291399484
 30
0.0
 10
151.0281240191082
 20
144.3507557571719
 30
0.0
 10
155.3237518811293
 20
147.2486544843978
 30
0.0
 10
158.038058385124
 20
149.3665683943923
 30
0.0
 10
163.0487966586591
 20
153.8767217798973
 30
0.0
 10
165.3543024330111
 20
156.260181547242
 30
0.0
 10
168.6108644056444
 20
160.1439246553677
 30
0.0
 10
169.6965584031925
 20
161.5449469572862
 30
0.0
 10
171.767641196235
 20
164.4392020173508
 30
0.0
 10
172.7510337413015
 20
165.9298485655116
 30
0.0
 10
175.5326357269208
 20
170.5125842030012
 30
0.0
 10
177.1618431529921
 20
173.7156619059494
 30
0.0
 10
179.260169498049
 20
178.7401484944155
 30
0.0
 10
179.9128435324032
 20
180.4950774340141
 30
0.0
 10
180.9574690075561
 20
183.6877776416165
 30
0.0
 10
181.3739604657639
 20
185.115203424824
 30
0.0
 10
181.9533708100101
 20
187.3632306608905
 30
0.0
 10
182.1452886181382
 20
188.1637911802103
 30
0.0
 10
182.324838823511
 20
188.9711365968
 30
0.0
  0
ARC
  5
B9
330
1F
100
AcDbEntity
  8
0
  6
Continuous
 62
     7
370
    15
100
AcDbCircle
 10
177.4440829632
 20
190.0565960533
 30
0.0
 40
5.000000000000028
100
AcDbArc
 50
347.4617170299
 51
90.0
  0
LINE
  5
BA
330
1F
100
AcDbEntity
  8
0
  6
Continuous
 62
     7
370
    15
100
AcDbLine
 10
54.6098682948
 20
195.0565957058
 30
0.0
 11
177.4440813728
 21
195.0565957058
 31
0.0
  0
ARC
  5
BB
330
1F
100
AcDbEntity
  8
0
  6
Continuous
 62
     7
370
    15
100
AcDbCircle
 10
54.6098667044
 20
190.0565960533
 30
0.0
 40
5.000000000000028
100
AcDbArc
 50
90.0
 51
192.5382829701
  0
SPLINE
  5
BC
330
1F
100
AcDbEntity
  8
0
  6
Continuous
 62
     7
370
    15
100
AcDbSpline
210
0.0
220
0.0
230
1.0
 70
     8
 71
     3
 72
    32
 73
    28
 74
     0
 42
0.00000001
 43
0.00000001
 12
1.0
 22
0.0
 32
0.0
 13
1.0
 23
0.0
 33
0.0
 40
45.90840065847187
 40
45.90840065847187
 40
45.90840065847187
 40
45.90840065847187
 40
48.97034166128937
 40
48.97034166128937
 40
54.58298475944389
 40
54.58298475944389
 40
61.58146489181034
 40
61.58146489181034
 40
74.91208081913999
 40
74.91208081913999
 40
81.5773887828048
 40
81.5773887828048
 40
88.24269674646962
 40
88.24269674646962
 40
100.6375409575951
 40
100.6375409575951
 40
113.3659004725042
 40
113.3659004725042
 40
119.7300802299587
 40
119.7300802299587
 40
126.0942599874133
 40
126.0942599874133
 40
135.2701171728336
 40
135.2701171728336
 40
148.8868678234485
 40
148.8868678234485
 40
162.5036184740635
 40
162.5036184740635
 40
162.5036184740635
 40
162.5036184740635
 10
49.72911084404353
 20
188.9711365968048
 30
0.0
 10
49.90866104941677
 20
188.1637911802134
 30
0.0
 10
50.10057885754528
 20
187.363230660892
 30
0.0
 10
50.67998920179257
 20
185.1152034248239
 30
0.0
 10
51.09648066000045
 20
183.6877776416165
 30
0.0
 10
52.14110613515238
 20
180.495077434014
 30
0.0
 10
52.79378016950659
 20
178.7401484944154
 30
0.0
 10
54.8921065145635
 20
173.7156619059493
 30
0.0
 10
56.52131394063481
 20
170.5125842030012
 30
0.0
 10
59.30291592625409
 20
165.9298485655115
 30
0.0
 10
60.2863084713205
 20
164.4392020173507
 30
0.0
 10
62.35739126436307
 20
161.5449469572861
 30
0.0
 10
63.44308526191117
 20
160.1439246553676
 30
0.0
 10
66.69964723454352
 20
156.2601815472418
 30
0.0
 10
69.00515300889548
 20
153.8767217798972
 30
0.0
 10
74.01589128243063
 20
149.3665683943917
 30
0.0
 10
76.73019778642626
 20
147.2486544843973
 30
0.0
 10
81.02582564844634
 20
144.3507557571718
 30
0.0
 10
82.49501268739262
 20
143.4312913994838
 30
0.0
 10
85.50094115514855
 20
141.6900240992979
 30
0.0
 10
87.04014114018882
 20
140.8668672240331
 30
0.0
 10
90.85508051017615
 20
138.9909310336278
 30
0.0
 10
93.15372946267203
 20
137.9990654761754
 30
0.0
 10
98.9137383762792
 20
135.8615176810979
 30
0.0
 10
102.3986293611396
 20
134.8747537722655
 30
0.0
 10
109.2970582678982
 20
133.5497783020348
 30
0.0
 10
112.7090194033804
 20
133.2111472695666
 30
0.0
 10
116.0269748337772
 20
133.2111472695669
 30
0.0
  0
DIMENSION
  5
BD
330
1F
100
AcDbEntity
  8
0
  6
Continuous
 62
     7
370
     0
100
AcDbDimension
  2
_D
 10
53.0269748338
 20
233.9483052592
 30
0.0
 11
116.0269748338
 21
233.9483052592
 31
0.0
 70
   160
  1
<>
 71
     2
 42
-1.0
  3
SLDDIMSTYLE0
100
AcDbAlignedDimension
 13
179.0269748338
 23
247.0565960533
 33
0.0
 14
53.0269748338
 24
247.0565960533
 34
0.0
100
AcDbRotatedDimension
  0
LINE
  5
C9
330
1F
100
AcDbEntity
  8
0
  6
Continuous
 62
     7
370
    15
100
AcDbLine
 10
40.857076686
 20
40.923756142
 30
0.0
 11
40.857076686
 21
52.9237543836
 31
0.0
  0
LINE
  5
CA
330
1F
100
AcDbEntity
  8
0
  6
Continuous
 62
     7
370
    15
100
AcDbLine
 10
40.857076686
 20
52.9237543836
 30
0.0
 11
34.857076401
 21
52.9237543836
 31
0.0
  0
LINE
  5
CB
330
1F
100
AcDbEntity
  8
0
  6
Continuous
 62
     7
370
    15
100
AcDbLine
 10
34.857076401
 20
52.9237543836
 30
0.0
 11
34.857076401
 21
40.923756142
 31
0.0
  0
LINE
  5
CC
330
1F
100
AcDbEntity
  8
0
  6
Continuous
 62
     7
370
    15
100
AcDbLine
 10
34.857076401
 20
40.923756142
 30
0.0
 11
40.857076686
 21
40.923756142
 31
0.0
  0
LINE
  5
CD
330
1F
100
AcDbEntity
  8
0
  6
Continuous
 62
     7
370
    15
100
AcDbLine
 10
50.8901884725
 20
71.490958859
 30
0.0
 11
56.6082408597
 21
73.3086174026
 31
0.0
  0
LINE
  5
CE
330
1F
100
AcDbEntity
  8
0
  6
Continuous
 62
     7
370
    15
100
AcDbLine
 10
51.7990177443
 20
68.6320071712
 30
0.0
 11
50.8901884725
 21
71.490958859
 31
0.0
  0
LINE
  5
CF
330
1F
100
AcDbEntity
  8
0
  6
Continuous
 62
     7
370
    15
100
AcDbLine
 10
57.5170692002
 20
70.4496657148
 30
0.0
 11
51.7990177443
 21
68.6320071712
 31
0.0
  0
SPLINE
  5
D0
330
1F
100
AcDbEntity
  8
0
  6
Continuous
 62
     7
370
    15
100
AcDbSpline
210
0.0
220
0.0
230
1.0
 70
     8
 71
     3
 72
     8
 73
     4
 74
     0
 42
0.00000001
 43
0.00000001
 12
1.0
 22
0.0
 32
0.0
 13
1.0
 23
0.0
 33
0.0
 40
48.20986007691838
 40
48.20986007691838
 40
48.20986007691838
 40
48.20986007691838
 40
58.51058518098459
 40
58.51058518098459
 40
58.51058518098459
 40
58.51058518098459
 10
60.02990732932462
 20
60.4542765603648
 30
0.0
 10
59.36434827497144
 20
63.81728160686109
 30
0.0
 10
58.515758727771
 20
67.15800838036789
 30
0.0
 10
57.51706960063562
 20
70.44966261170862
 30
0.0
  0
LINE
  5
D1
330
1F
100
AcDbEntity
  8
0
  6
Continuous
 62
     7
370
    15
100
AcDbLine
 10
54.1267020573
 20
59.382610549
 30
0.0
 11
60.0299078916
 21
60.4542759851
 31
0.0
  0
LINE
  5
D2
330
1F
100
AcDbEntity
  8
0
  6
Continuous
 62
     7
370
    15
100
AcDbLine
 10
54.6617552583
 20
56.4308134511
 30
0.0
 11
54.1267020573
 21
59.382610549
 31
0.0
  0
LINE
  5
D3
330
1F
100
AcDbEntity
  8
0
  6
Continuous
 62
     7
370
    15
100
AcDbLine
 10
60.5649601613
 20
57.5024788871
 30
0.0
 11
54.6617552583
 21
56.4308134511
 31
0.0
  0
SPLINE
  5
D4
330
1F
100
AcDbEntity
  8
0
  6
Continuous
 62
     7
370
    15
100
AcDbSpline
210
0.0
220
0.0
230
1.0
 70
     8
 71
     3
 72
     8
 73
     4
 74
     0
 42
0.00000001
 43
0.00000001
 12
1.0
 22
0.0
 32
0.0
 13
1.0
 23
0.0
 33
0.0
 40
31.48169288683176
 40
31.48169288683176
 40
31.48169288683176
 40
31.48169288683176
 40
45.20145852406127
 40
45.20145852406127
 40
45.20145852406127
 40
45.20145852406127
 10
61.23414532277426
 20
43.8062806642546
 30
0.0
 10
61.65989951369397
 20
48.46995090643706
 30
0.0
 10
61.30134000748891
 20
53.0071477895339
 30
0.0
 10
60.56496095315095
 20
57.50247779158121
 30
0.0
  0
LINE
  5
D5
330
1F
100
AcDbEntity
  8
0
  6
Continuous
 62
     7
370
    15
100
AcDbLine
 10
55.2821567227
 20
44.563819249
 30
0.0
 11
61.2341452335
 21
43.8062814668
 31
0.0
  0
LINE
  5
D6
330
1F
100
AcDbEntity
  8
0
  6
Continuous
 62
     7
370
    15
100
AcDbLine
 10
54.9032201936
 20
41.58833303
 30
0.0
 11
55.2821567227
 21
44.563819249
 31
0.0
  0
LINE
  5
D7
330
1F
100
AcDbEntity
  8
0
  6
Continuous
 62
     7
370
    15
100
AcDbLine
 10
60.8552087044
 20
40.8307952479
 30
0.0
 11
54.9032201936
 21
41.58833303
 31
0.0
  0
SPLINE
  5
D8
330
1F
100
AcDbEntity
  8
0
  6
Continuous
 62
     7
370
    15
100
AcDbSpline
210
0.0
220
0.0
230
1.0
 70
     8
 71
     3
 72
     8
 73
     4
 74
     0
 42
0.00000001
 43
0.00000001
 12
1.0
 22
0.0
 32
0.0
 13
1.0
 23
0.0
 33
0.0
 40
8.950133497183277
 40
8.950133497183277
 40
8.950133497183277
 40
8.950133497183277
 40
28.5801357046734
 40
28.5801357046734
 40
28.5801357046734
 40
28.5801357046734
 10
51.83988045341013
 20
23.1868060870268
 30
0.0
 10
56.91190381694274
 20
27.28201831705725
 30
0.0
 10
59.74909369085326
 20
34.0925597910437
 30
0.0
 10
60.85520873368655
 20
40.83079530681859
 30
0.0
  0
LINE
  5
D9
330
1F
100
AcDbEntity
  8
0
  6
Continuous
 62
     7
370
    15
100
AcDbLine
 10
48.4793393818
 20
28.1573949054
 30
0.0
 11
51.8398804535
 21
23.1868052527
 31
0.0
  0
LINE
  5
DA
330
1F
100
AcDbEntity
  8
0
  6
Continuous
 62
     7
370
    15
100
AcDbLine
 10
45.9936825038
 20
26.4829365209
 30
0.0
 11
48.4793393818
 21
28.1573949054
 31
0.0
  0
LINE
  5
DB
330
1F
100
AcDbEntity
  8
0
  6
Continuous
 62
     7
370
    15
100
AcDbLine
 10
49.3542238084
 20
21.5123468682
 30
0.0
 11
45.9936825038
 21
26.4829365209
 31
0.0
  0
SPLINE
  5
DC
330
1F
100
AcDbEntity
  8
0
  6
Continuous
 62
     7
370
    15
100
AcDbSpline
210
0.0
220
0.0
230
1.0
 70
     8
 71
     3
 72
    10
 73
     6
 74
     0
 42
0.00000001
 43
0.00000001
 12
1.0
 22
0.0
 32
0.0
 13
1.0
 23
0.0
 33
0.0
 40
0.0
 40
0.0
 40
0.0
 40
0.0
 40
2.281697714333246
 40
4.73184280079342
 40
5.946932118548466
 40
5.946932118548466
 40
5.946932118548466
 40
5.946932118548466
 10
43.65811012137879
 20
19.99310583823966
 30
0.0
 10
44.4186760261557
 20
19.99310583823966
 30
0.0
 10
45.9999299910864
 20
20.16481774701818
 30
0.0
 10
47.89874299270462
 20
20.77676439492632
 30
0.0
 10
48.99800862657034
 20
21.31795320516184
 30
0.0
 10
49.35422380655628
 20
21.51234765814459
 30
0.0
  0
SPLINE
  5
DD
330
1F
100
AcDbEntity
  8
0
  6
Continuous
 62
     7
370
    15
100
AcDbSpline
210
0.0
220
0.0
230
1.0
 70
     8
 71
     3
 72
    10
 73
     6
 74
     0
 42
0.00000001
 43
0.00000001
 12
1.0
 22
0.0
 32
0.0
 13
1.0
 23
0.0
 33
0.0
 40
80.36200656108413
 40
80.36200656108413
 40
80.36200656108413
 40
80.36200656108413
 40
81.57709587884194
 40
84.02724096530211
 40
86.30893867963536
 40
86.30893867963536
 40
86.30893867963536
 40
86.30893867963536
 10
37.96199643620201
 20
21.51234765814592
 30
0.0
 10
38.31821161618866
 20
21.31795320516265
 30
0.0
 10
39.41747725005456
 20
20.7767643949266
 30
0.0
 10
41.31629025166941
 20
20.16481774701818
 30
0.0
 10
42.89754421660188
 20
19.99310583823966
 30
0.0
 10
43.65811012137879
 20
19.99310583823966
 30
0.0
  0
LINE
  5
DE
330
1F
100
AcDbEntity
  8
0
  6
Continuous
 62
     7
370
    15
100
AcDbLine
 10
41.3225377389
 20
26.4829365209
 30
0.0
 11
37.9619964344
 21
21.5123468682
 31
0.0
  0
LINE
  5
DF
330
1F
100
AcDbEntity
  8
0
  6
Continuous
 62
     7
370
    15
100
AcDbLine
 10
38.836880861
 20
28.1573949054
 30
0.0
 11
41.3225377389
 21
26.4829365209
 31
0.0
  0
LINE
  5
E0
330
1F
100
AcDbEntity
  8
0
  6
Continuous
 62
     7
370
    15
100
AcDbLine
 10
35.4763397892
 20
23.1868052527
 30
0.0
 11
38.836880861
 21
28.1573949054
 31
0.0
  0
SPLINE
  5
E1
330
1F
100
AcDbEntity
  8
0
  6
Continuous
 62
     7
370
    15
100
AcDbSpline
210
0.0
220
0.0
230
1.0
 70
     8
 71
     3
 72
     8
 73
     4
 74
     0
 42
0.00000001
 43
0.00000001
 12
1.0
 22
0.0
 32
0.0
 13
1.0
 23
0.0
 33
0.0
 40
57.72880297496174
 40
57.72880297496174
 40
57.72880297496174
 40
57.72880297496174
 40
77.35880518244988
 40
77.35880518244988
 40
77.35880518244988
 40
77.35880518244988
 10
26.46101150907242
 20
40.83079530681882
 30
0.0
 10
27.56712655190589
 20
34.09255979104461
 30
0.0
 10
30.40431642581599
 20
27.28201831705882
 30
0.0
 10
35.47633978934856
 20
23.18680608702818
 30
0.0
  0
LINE
  5
E2
330
1F
100
AcDbEntity
  8
0
  6
Continuous
 62
     7
370
    15
100
AcDbLine
 10
32.4130000492
 20
41.58833303
 30
0.0
 11
26.4610115384
 21
40.8307952479
 31
0.0
  0
LINE
  5
E3
330
1F
100
AcDbEntity
  8
0
  6
Continuous
 62
     7
370
    15
100
AcDbLine
 10
32.03406352
 20
44.563819249
 30
0.0
 11
32.4130000492
 21
41.58833303
 31
0.0
  0
LINE
  5
E4
330
1F
100
AcDbEntity
  8
0
  6
Continuous
 62
     7
370
    15
100
AcDbLine
 10
26.0820750092
 20
43.8062814668
 30
0.0
 11
32.03406352
 21
44.563819249
 31
0.0
  0
SPLINE
  5
E5
330
1F
100
AcDbEntity
  8
0
  6
Continuous
 62
     7
370
    15
100
AcDbSpline
210
0.0
220
0.0
230
1.0
 70
     8
 71
     3
 72
     8
 73
     4
 74
     0
 42
0.00000001
 43
0.00000001
 12
1.0
 22
0.0
 32
0.0
 13
1.0
 23
0.0
 33
0.0
 40
41.10748015557373
 40
41.10748015557373
 40
41.10748015557373
 40
41.10748015557373
 40
54.82724579280346
 40
54.82724579280346
 40
54.82724579280346
 40
54.82724579280346
 10
26.75125928960633
 20
57.50247779158156
 30
0.0
 10
26.01488023526916
 20
53.00714778953419
 30
0.0
 10
25.65632072906454
 20
48.46995090643728
 30
0.0
 10
26.08207491998455
 20
43.80628066425473
 30
0.0
  0
LINE
  5
E6
330
1F
100
AcDbEntity
  8
0
  6
Continuous
 62
     7
370
    15
100
AcDbLine
 10
32.6544649844
 20
56.4308134511
 30
0.0
 11
26.7512600814
 21
57.5024788871
 31
0.0
  0
LINE
  5
E7
330
1F
100
AcDbEntity
  8
0
  6
Continuous
 62
     7
370
    15
100
AcDbLine
 10
33.1895181854
 20
59.382610549
 30
0.0
 11
32.6544649844
 21
56.4308134511
 31
0.0
  0
LINE
  5
E8
330
1F
100
AcDbEntity
  8
0
  6
Continuous
 62
     7
370
    15
100
AcDbLine
 10
27.2863123511
 20
60.4542759851
 30
0.0
 11
33.1895181854
 21
59.382610549
 31
0.0
  0
SPLINE
  5
E9
330
1F
100
AcDbEntity
  8
0
  6
Continuous
 62
     7
370
    15
100
AcDbSpline
210
0.0
220
0.0
230
1.0
 70
     8
 71
     3
 72
     8
 73
     4
 74
     0
 42
0.00000001
 43
0.00000001
 12
1.0
 22
0.0
 32
0.0
 13
1.0
 23
0.0
 33
0.0
 40
27.79835349864411
 40
27.79835349864411
 40
27.79835349864411
 40
27.79835349864411
 40
38.09907860271678
 40
38.09907860271678
 40
38.09907860271678
 40
38.09907860271678
 10
29.79915064212149
 20
70.44966261171501
 30
0.0
 10
28.80046151498523
 20
67.15800838037228
 30
0.0
 10
27.95187196778494
 20
63.81728160686337
 30
0.0
 10
27.28631291343205
 20
60.45427656036498
 30
0.0
  0
LINE
  5
EA
330
1F
100
AcDbEntity
  8
0
  6
Continuous
 62
     7
370
    15
100
AcDbLine
 10
35.5172024985
 20
68.6320071712
 30
0.0
 11
29.7991510426
 21
70.4496657148
 31
0.0
  0
LINE
  5
EB
330
1F
100
AcDbEntity
  8
0
  6
Continuous
 62
     7
370
    15
100
AcDbLine
 10
36.4260317703
 20
71.490958859
 30
0.0
 11
35.5172024985
 21
68.6320071712
 31
0.0
  0
LINE
  5
EC
330
1F
100
AcDbEntity
  8
0
  6
Continuous
 62
     7
370
    15
100
AcDbLine
 10
30.7079793831
 20
73.3086174026
 30
0.0
 11
36.4260317703
 21
71.490958859
 31
0.0
  0
SPLINE
  5
ED
330
1F
100
AcDbEntity
  8
0
  6
Continuous
 62
     7
370
    15
100
AcDbSpline
210
0.0
220
0.0
230
1.0
 70
     8
 71
     3
 72
    11
 73
     7
 74
     0
 42
0.00000001
 43
0.00000001
 12
1.0
 22
0.0
 32
0.0
 13
1.0
 23
0.0
 33
0.0
 40
0.0
 40
0.0
 40
0.0
 40
0.0
 40
3.321824595102882
 40
8.126138457117094
 40
17.23313502441775
 40
24.80248837788183
 40
24.80248837788183
 40
24.80248837788183
 40
24.80248837788183
 10
40.9491303672235
 20
95.86232616206503
 30
0.0
 10
40.42239633982039
 20
94.88836061282213
 30
0.0
 10
39.15720602032504
 20
92.4931395634927
 30
0.0
 10
36.48564750360652
 20
87.4083788774771
 30
0.0
 10
33.43728854021246
 20
80.91872147998826
 30
0.0
 10
31.50483581762367
 20
75.70497756580458
 30
0.0
 10
30.70797963645208
 20
73.30862035158381
 30
0.0
  0
LINE
  5
EE
330
1F
100
AcDbEntity
  8
0
  6
Continuous
 62
     7
370
    15
100
AcDbLine
 10
46.3670897708
 20
95.8623295322
 30
0.0
 11
40.9491304719
 21
95.8623295322
 31
0.0
  0
SPLINE
  5
EF
330
1F
100
AcDbEntity
  8
0
  6
Continuous
 62
     7
370
    15
100
AcDbSpline
210
0.0
220
0.0
230
1.0
 70
     8
 71
     3
 72
    11
 73
     7
 74
     0
 42
0.00000001
 43
0.00000001
 12
1.0
 22
0.0
 32
0.0
 13
1.0
 23
0.0
 33
0.0
 40
61.50645030175288
 40
61.50645030175288
 40
61.50645030175288
 40
61.50645030175288
 40
69.07580365521761
 40
78.18280022251827
 40
82.98711408453248
 40
86.30893867963536
 40
86.30893867963536
 40
86.30893867963536
 40
86.30893867963536
 10
56.60824060630357
 20
73.3086203515832
 30
0.0
 10
55.81138442513233
 20
75.70497756580416
 30
0.0
 10
53.87893170254521
 20
80.91872147998808
 30
0.0
 10
50.83057273915106
 20
87.4083788774771
 30
0.0
 10
48.15901422243432
 20
92.4931395634927
 30
0.0
 10
46.89382390293719
 20
94.88836061282213
 30
0.0
 10
46.36708987553408
 20
95.86232616206503
 30
0.0
  0
LINE
  5
F0
330
1F
100
AcDbEntity
  8
0
  6
Continuous
 62
     7
370
    15
100
AcDbLine
 10
46.4591435568
 20
40.923756142
 30
0.0
 11
52.4591438418
 21
40.923756142
 31
0.0
  0
LINE
  5
F1
330
1F
100
AcDbEntity
  8
0
  6
Continuous
 62
     7
370
    15
100
AcDbLine
 10
52.4591438418
 20
40.923756142
 30
0.0
 11
52.4591438418
 21
52.9237543836
 31
0.0
  0
LINE
  5
F2
330
1F
100
AcDbEntity
  8
0
  6
Continuous
 62
     7
370
    15
100
AcDbLine
 10
52.4591438418
 20
52.9237543836
 30
0.0
 11
46.4591435568
 21
52.9237543836
 31
0.0
  0
LINE
  5
F3
330
1F
100
AcDbEntity
  8
0
  6
Continuous
 62
     7
370
    15
100
AcDbLine
 10
46.4591435568
 20
52.9237543836
 30
0.0
 11
46.4591435568
 21
40.923756142
 31
0.0
  0
SPLINE
  5
F4
330
1F
100
AcDbEntity
  8
0
  6
Continuous
 62
     7
370
    15
100
AcDbSpline
210
0.0
220
0.0
230
1.0
 70
     8
 71
     3
 72
     8
 73
     4
 74
     0
 42
0.00000001
 43
0.00000001
 12
1.0
 22
0.0
 32
0.0
 13
1.0
 23
0.0
 33
0.0
 40
103.8448446891634
 40
103.8448446891634
 40
103.8448446891634
 40
103.8448446891634
 40
119.3791514721019
 40
119.3791514721019
 40
119.3791514721019
 40
119.3791514721019
 10
267.7307920653286
 20
118.2349414003377
 30
0.0
 10
266.148462784328
 20
123.1718296491409
 30
0.0
 10
264.4933215699736
 20
128.0747355599257
 30
0.0
 10
262.7397546137053
 20
132.9446076357272
 30
0.0
  0
LINE
  5
F5
330
1F
100
AcDbEntity
  8
0
  6
Continuous
 62
     7
370
    15
100
AcDbLine
 10
262.0120177826
 20
116.4204879339
 30
0.0
 11
267.7307928762
 21
118.2349427278
 31
0.0
  0
LINE
  5
F6
330
1F
100
AcDbEntity
  8
0
  6
Continuous
 62
     7
370
    15
100
AcDbLine
 10
262.9191613605
 20
113.5609252985
 30
0.0
 11
262.0120177826
 21
116.4204879339
 31
0.0
  0
LINE
  5
F7
330
1F
100
AcDbEntity
  8
0
  6
Continuous
 62
     7
370
    15
100
AcDbLine
 10
268.6379364541
 20
115.3753800924
 30
0.0
 11
262.9191613605
 21
113.5609252985
 31
0.0
  0
SPLINE
  5
F8
330
1F
100
AcDbEntity
  8
0
  6
Continuous
 62
     7
370
    15
100
AcDbSpline
210
0.0
220
0.0
230
1.0
 70
     8
 71
     3
 72
     8
 73
     4
 74
     0
 42
0.00000001
 43
0.00000001
 12
1.0
 22
0.0
 32
0.0
 13
1.0
 23
0.0
 33
0.0
 40
83.64060709202674
 40
83.64060709202674
 40
83.64060709202674
 40
83.64060709202674
 40
100.8495689370294
 40
100.8495689370294
 40
100.8495689370294
 40
100.8495689370294
 10
273.1665320861919
 20
98.76763457871881
 30
0.0
 10
271.9665465698559
 20
104.3637734329907
 30
0.0
 10
270.3582891756262
 20
109.8915492377019
 30
0.0
 10
268.6379357003943
 20
115.3753837530014
 30
0.0
  0
LINE
  5
F9
330
1F
100
AcDbEntity
  8
0
  6
Continuous
 62
     7
370
    15
100
AcDbLine
 10
267.2836537322
 20
97.5862211223
 30
0.0
 11
273.1665334514
 21
98.7676336105
 31
0.0
  0
LINE
  5
FA
330
1F
100
AcDbEntity
  8
0
  6
Continuous
 62
     7
370
    15
100
AcDbLine
 10
267.8740917554
 20
94.6449665959
 30
0.0
 11
267.2836537322
 21
97.5862211223
 31
0.0
  0
LINE
  5
FB
330
1F
100
AcDbEntity
  8
0
  6
Continuous
 62
     7
370
    15
100
AcDbLine
 10
273.7569696119
 20
95.8263790841
 30
0.0
 11
267.8740917554
 21
94.6449665959
 31
0.0
  0
SPLINE
  5
FC
330
1F
100
AcDbEntity
  8
0
  6
Continuous
 62
     7
370
    15
100
AcDbSpline
210
0.0
220
0.0
230
1.0
 70
     8
 71
     3
 72
     8
 73
     4
 74
     0
 42
0.00000001
 43
0.00000001
 12
1.0
 22
0.0
 32
0.0
 13
1.0
 23
0.0
 33
0.0
 40
61.47555879774528
 40
61.47555879774528
 40
61.47555879774528
 40
61.47555879774528
 40
80.63223409197684
 40
80.63223409197684
 40
80.63223409197684
 40
80.63223409197684
 10
275.4665107880955
 20
76.74789320272744
 30
0.0
 10
275.5442996279378
 20
83.2221928952856
 30
0.0
 10
274.9254077751917
 20
89.56941145605977
 30
0.0
 10
273.7569700021522
 20
95.82637939135408
 30
0.0
  0
LINE
  5
FD
330
1F
100
AcDbEntity
  8
0
  6
Continuous
 62
     7
370
    15
100
AcDbLine
 10
269.4689723512
 20
76.9197373326
 30
0.0
 11
275.4665090552
 21
76.7478934164
 31
0.0
  0
LINE
  5
FE
330
1F
100
AcDbEntity
  8
0
  6
Continuous
 62
     7
370
    15
100
AcDbLine
 10
269.3827542326
 20
73.9210835333
 30
0.0
 11
269.4689723512
 21
76.9197373326
 31
0.0
  0
LINE
  5
FF
330
1F
100
AcDbEntity
  8
0
  6
Continuous
 62
     7
370
    15
100
AcDbLine
 10
275.3802946618
 20
73.7492396171
 30
0.0
 11
269.3827542326
 21
73.9210835333
 31
0.0
  0
SPLINE
  5
100
330
1F
100
AcDbEntity
  8
0
  6
Continuous
 62
     7
370
    15
100
AcDbSpline
210
0.0
220
0.0
230
1.0
 70
     8
 71
     3
 72
     8
 73
     4
 74
     0
 42
0.00000001
 43
0.00000001
 12
1.0
 22
0.0
 32
0.0
 13
1.0
 23
0.0
 33
0.0
 40
35.2063589995028
 40
35.2063589995028
 40
35.2063589995028
 40
35.2063589995028
 40
58.52668760099473
 40
58.52668760099473
 40
58.52668760099473
 40
58.52668760099473
 10
269.7243896405861
 20
51.05056767975182
 30
0.0
 10
273.5283806666616
 20
57.79565239738263
 30
0.0
 10
275.0165592551378
 20
65.82487546102475
 30
0.0
 10
275.3802928954893
 20
73.74923881920023
 30
0.0
  0
LINE
  5
101
330
1F
100
AcDbEntity
  8
0
  6
Continuous
 62
     7
370
    15
100
AcDbLine
 10
264.6361159941
 20
54.2301703851
 30
0.0
 11
269.72438943
 21
51.0505680601
 31
0.0
  0
LINE
  5
102
330
1F
100
AcDbEntity
  8
0
  6
Continuous
 62
     7
370
    15
100
AcDbLine
 10
263.0467320642
 20
51.6866986315
 30
0.0
 11
264.6361159941
 21
54.2301703851
 31
0.0
  0
LINE
  5
103
330
1F
100
AcDbEntity
  8
0
  6
Continuous
 62
     7
370
    15
100
AcDbLine
 10
268.1350055
 20
48.5070963065
 30
0.0
 11
263.0467320642
 21
51.6866986315
 31
0.0
  0
SPLINE
  5
104
330
1F
100
AcDbEntity
  8
0
  6
Continuous
 62
     7
370
    15
100
AcDbSpline
210
0.0
220
0.0
230
1.0
 70
     8
 71
     3
 72
     8
 73
     4
 74
     0
 42
0.00000001
 43
0.00000001
 12
1.0
 22
0.0
 32
0.0
 13
1.0
 23
0.0
 33
0.0
 40
25.86432798026417
 40
25.86432798026417
 40
25.86432798026417
 40
25.86432798026417
 40
32.19807270153972
 40
32.19807270153972
 40
32.19807270153972
 40
32.19807270153972
 10
264.0902978759497
 20
43.61748241054445
 30
0.0
 10
265.5750496795142
 20
45.13729637538408
 30
0.0
 10
266.9380293110233
 20
46.77038277441709
 30
0.0
 10
268.1350058221721
 20
48.5070963851085
 30
0.0
  0
LINE
  5
105
330
1F
100
AcDbEntity
  8
0
  6
Continuous
 62
     7
370
    15
100
AcDbLine
 10
259.5359477064
 20
48.0667641993
 30
0.0
 11
264.0902976355
 21
43.6174823578
 31
0.0
  0
LINE
  5
106
330
1F
100
AcDbEntity
  8
0
  6
Continuous
 62
     7
370
    15
100
AcDbLine
 10
254.6297413146
 20
71.9482927258
 30
0.0
 11
259.5359477064
 21
48.0667641993
 31
0.0
  0
LINE
  5
107
330
1F
100
AcDbEntity
  8
0
  6
Continuous
 62
     7
370
    15
100
AcDbLine
 10
254.6297413146
 20
81.948294365
 30
0.0
 11
254.6297413146
 21
71.9482927258
 31
0.0
  0
LINE
  5
108
330
1F
100
AcDbEntity
  8
0
  6
Continuous
 62
     7
370
    15
100
AcDbLine
 10
260.6297413668
 20
81.948294365
 30
0.0
 11
254.6297413146
 21
81.948294365
 31
0.0
  0
LINE
  5
109
330
1F
100
AcDbEntity
  8
0
  6
Continuous
 62
     7
370
    15
100
AcDbLine
 10
260.6297413668
 20
93.9482926066
 30
0.0
 11
260.6297413668
 21
81.948294365
 31
0.0
  0
LINE
  5
10A
330
1F
100
AcDbEntity
  8
0
  6
Continuous
 62
     7
370
    15
100
AcDbLine
 10
254.6297413146
 20
93.9482926066
 30
0.0
 11
260.6297413668
 21
93.9482926066
 31
0.0
  0
LINE
  5
10B
330
1F
100
AcDbEntity
  8
0
  6
Continuous
 62
     7
370
    15
100
AcDbLine
 10
254.6297413146
 20
116.948294514
 30
0.0
 11
254.6297413146
 21
93.9482926066
 31
0.0
  0
ELLIPSE
  5
10C
330
1F
100
AcDbEntity
  8
0
  6
Continuous
 62
     7
370
    15
100
AcDbEllipse
 10
241.1297409646
 20
116.9482927083
 30
0.0
 11
-1.598721155460225E-10
 21
-17.65515586361755
 31
0.0
210
0.0
220
0.0
230
1.0
 40
0.7646491543
 41
1.570796326801795
 42
4.712388980391625
  0
LINE
  5
10D
330
1F
100
AcDbEntity
  8
0
  6
Continuous
 62
     7
370
    15
100
AcDbLine
 10
227.6297406143
 20
93.9482926066
 30
0.0
 11
227.6297406143
 21
116.948294514
 31
0.0
  0
LINE
  5
10E
330
1F
100
AcDbEntity
  8
0
  6
Continuous
 62
     7
370
    15
100
AcDbLine
 10
221.6297405621
 20
93.9482926066
 30
0.0
 11
227.6297406143
 21
93.9482926066
 31
0.0
  0
LINE
  5
10F
330
1F
100
AcDbEntity
  8
0
  6
Continuous
 62
     7
370
    15
100
AcDbLine
 10
221.6297405621
 20
81.948294365
 30
0.0
 11
221.6297405621
 21
93.9482926066
 31
0.0
  0
LINE
  5
110
330
1F
100
AcDbEntity
  8
0
  6
Continuous
 62
     7
370
    15
100
AcDbLine
 10
227.6297406143
 20
81.948294365
 30
0.0
 11
221.6297405621
 21
81.948294365
 31
0.0
  0
LINE
  5
111
330
1F
100
AcDbEntity
  8
0
  6
Continuous
 62
     7
370
    15
100
AcDbLine
 10
227.6297406143
 20
71.9482927258
 30
0.0
 11
227.6297406143
 21
81.948294365
 31
0.0
  0
LINE
  5
112
330
1F
100
AcDbEntity
  8
0
  6
Continuous
 62
     7
370
    15
100
AcDbLine
 10
222.7235342225
 20
48.0667641993
 30
0.0
 11
227.6297406143
 21
71.9482927258
 31
0.0
  0
LINE
  5
113
330
1F
100
AcDbEntity
  8
0
  6
Continuous
 62
     7
370
    15
100
AcDbLine
 10
218.1691842934
 20
43.6174823578
 30
0.0
 11
222.7235342225
 21
48.0667641993
 31
0.0
  0
SPLINE
  5
114
330
1F
100
AcDbEntity
  8
0
  6
Continuous
 62
     7
370
    15
100
AcDbSpline
210
0.0
220
0.0
230
1.0
 70
     8
 71
     3
 72
     8
 73
     4
 74
     0
 42
0.00000001
 43
0.00000001
 12
1.0
 22
0.0
 32
0.0
 13
1.0
 23
0.0
 33
0.0
 40
114.8679270243654
 40
114.8679270243654
 40
114.8679270243654
 40
114.8679270243654
 40
121.2016717456363
 40
121.2016717456363
 40
121.2016717456363
 40
121.2016717456363
 10
214.1244761068368
 20
48.50709638512939
 30
0.0
 10
215.3214526179831
 20
46.77038277443845
 30
0.0
 10
216.6844322494896
 20
45.1372963754058
 30
0.0
 10
218.1691840530517
 20
43.61748241056633
 30
0.0
  0
LINE
  5
115
330
1F
100
AcDbEntity
  8
0
  6
Continuous
 62
     7
370
    15
100
AcDbLine
 10
219.2127498647
 20
51.6866986315
 30
0.0
 11
214.1244764289
 21
48.5070963065
 31
0.0
  0
LINE
  5
116
330
1F
100
AcDbEntity
  8
0
  6
Continuous
 62
     7
370
    15
100
AcDbLine
 10
217.6233659348
 20
54.2301703851
 30
0.0
 11
219.2127498647
 21
51.6866986315
 31
0.0
  0
LINE
  5
117
330
1F
100
AcDbEntity
  8
0
  6
Continuous
 62
     7
370
    15
100
AcDbLine
 10
212.5350924989
 20
51.0505680601
 30
0.0
 11
217.6233659348
 21
54.2301703851
 31
0.0
  0
SPLINE
  5
118
330
1F
100
AcDbEntity
  8
0
  6
Continuous
 62
     7
370
    15
100
AcDbSpline
210
0.0
220
0.0
230
1.0
 70
     8
 71
     3
 72
     8
 73
     4
 74
     0
 42
0.00000001
 43
0.00000001
 12
1.0
 22
0.0
 32
0.0
 13
1.0
 23
0.0
 33
0.0
 40
88.53931212493355
 40
88.53931212493355
 40
88.53931212493355
 40
88.53931212493355
 40
111.8596407264055
 40
111.8596407264055
 40
111.8596407264055
 40
111.8596407264055
 10
206.8791890335275
 20
73.74923881920198
 30
0.0
 10
207.2429226738817
 20
65.82487546103363
 30
0.0
 10
208.7311012623589
 20
57.79565239739834
 30
0.0
 10
212.5350922884265
 20
51.05056767977099
 30
0.0
  0
LINE
  5
119
330
1F
100
AcDbEntity
  8
0
  6
Continuous
 62
     7
370
    15
100
AcDbLine
 10
212.8767276963
 20
73.9210835333
 30
0.0
 11
206.8791872671
 21
73.7492396171
 31
0.0
  0
LINE
  5
11A
330
1F
100
AcDbEntity
  8
0
  6
Continuous
 62
     7
370
    15
100
AcDbLine
 10
212.7905095777
 20
76.9197373326
 30
0.0
 11
212.8767276963
 21
73.9210835333
 31
0.0
  0
LINE
  5
11B
330
1F
100
AcDbEntity
  8
0
  6
Continuous
 62
     7
370
    15
100
AcDbLine
 10
206.7929728737
 20
76.7478934164
 30
0.0
 11
212.7905095777
 21
76.9197373326
 31
0.0
  0
SPLINE
  5
11C
330
1F
100
AcDbEntity
  8
0
  6
Continuous
 62
     7
370
    15
100
AcDbSpline
210
0.0
220
0.0
230
1.0
 70
     8
 71
     3
 72
     8
 73
     4
 74
     0
 42
0.00000001
 43
0.00000001
 12
1.0
 22
0.0
 32
0.0
 13
1.0
 23
0.0
 33
0.0
 40
66.43376563396264
 40
66.43376563396264
 40
66.43376563396264
 40
66.43376563396264
 40
85.59044092819406
 40
85.59044092819406
 40
85.59044092819406
 40
85.59044092819406
 10
208.5025119268556
 20
95.82637939134479
 30
0.0
 10
207.3340741538185
 20
89.56941145605008
 30
0.0
 10
206.7151823010748
 20
83.22219289527575
 30
0.0
 10
206.7929711409203
 20
76.74789320271782
 30
0.0
  0
LINE
  5
11D
330
1F
100
AcDbEntity
  8
0
  6
Continuous
 62
     7
370
    15
100
AcDbLine
 10
214.3853901735
 20
94.6449665959
 30
0.0
 11
208.502512317
 21
95.8263790841
 31
0.0
  0
LINE
  5
11E
330
1F
100
AcDbEntity
  8
0
  6
Continuous
 62
     7
370
    15
100
AcDbLine
 10
214.9758281967
 20
97.5862211223
 30
0.0
 11
214.3853901735
 21
94.6449665959
 31
0.0
  0
LINE
  5
11F
330
1F
100
AcDbEntity
  8
0
  6
Continuous
 62
     7
370
    15
100
AcDbLine
 10
209.0929484776
 20
98.7676336105
 30
0.0
 11
214.9758281967
 21
97.5862211223
 31
0.0
  0
SPLINE
  5
120
330
1F
100
AcDbEntity
  8
0
  6
Continuous
 62
     7
370
    15
100
AcDbSpline
210
0.0
220
0.0
230
1.0
 70
     8
 71
     3
 72
     8
 73
     4
 74
     0
 42
0.00000001
 43
0.00000001
 12
1.0
 22
0.0
 32
0.0
 13
1.0
 23
0.0
 33
0.0
 40
46.21643078890997
 40
46.21643078890997
 40
46.21643078890997
 40
46.21643078890997
 40
63.42539263390939
 40
63.42539263390939
 40
63.42539263390939
 40
63.42539263390939
 10
213.6215462286064
 20
115.3753837529944
 30
0.0
 10
211.9011927533763
 20
109.8915492376952
 30
0.0
 10
210.2929353591492
 20
104.3637734329843
 30
0.0
 10
209.0929498428155
 20
98.76763457871301
 30
0.0
  0
LINE
  5
121
330
1F
100
AcDbEntity
  8
0
  6
Continuous
 62
     7
370
    15
100
AcDbLine
 10
219.3403205684
 20
113.5609252985
 30
0.0
 11
213.6215454748
 21
115.3753800924
 31
0.0
  0
LINE
  5
122
330
1F
100
AcDbEntity
  8
0
  6
Continuous
 62
     7
370
    15
100
AcDbLine
 10
220.2474641463
 20
116.4204879339
 30
0.0
 11
219.3403205684
 21
113.5609252985
 31
0.0
  0
LINE
  5
123
330
1F
100
AcDbEntity
  8
0
  6
Continuous
 62
     7
370
    15
100
AcDbLine
 10
214.5286890527
 20
118.2349427278
 30
0.0
 11
220.2474641463
 21
116.4204879339
 31
0.0
  0
SPLINE
  5
124
330
1F
100
AcDbEntity
  8
0
  6
Continuous
 62
     7
370
    15
100
AcDbSpline
210
0.0
220
0.0
230
1.0
 70
     8
 71
     3
 72
     8
 73
     4
 74
     0
 42
0.00000001
 43
0.00000001
 12
1.0
 22
0.0
 32
0.0
 13
1.0
 23
0.0
 33
0.0
 40
27.68684825383951
 40
27.68684825383951
 40
27.68684825383951
 40
27.68684825383951
 40
43.22115503678384
 40
43.22115503678384
 40
43.22115503678384
 40
43.22115503678384
 10
219.5197273152905
 20
132.9446076357208
 30
0.0
 10
217.7661603590237
 20
128.0747355599167
 30
0.0
 10
216.1110191446692
 20
123.1718296491293
 30
0.0
 10
214.5286898636691
 20
118.2349414003235
 30
0.0
  0
LINE
  5
125
330
1F
100
AcDbEntity
  8
0
  6
Continuous
 62
     7
370
    15
100
AcDbLine
 10
223.1297417393
 20
131.6287024553
 30
0.0
 11
219.5197268239
 21
132.9446090992
 31
0.0
  0
LINE
  5
126
330
1F
100
AcDbEntity
  8
0
  6
Continuous
 62
     7
370
    15
100
AcDbLine
 10
223.1297417393
 20
131.6287024553
 30
0.0
 11
223.1297417393
 21
102.2482915457
 31
0.0
  0
LINE
  5
127
330
1F
100
AcDbEntity
  8
0
  6
Continuous
 62
     7
370
    15
100
AcDbLine
 10
223.1297417393
 20
102.2482915457
 30
0.0
 11
225.1297402045
 21
102.2482915457
 31
0.0
  0
LINE
  5
128
330
1F
100
AcDbEntity
  8
0
  6
Continuous
 62
     7
370
    15
100
AcDbLine
 10
225.1297402045
 20
102.2482915457
 30
0.0
 11
225.1297402045
 21
130.8996705945
 31
0.0
  0
LINE
  5
129
330
1F
100
AcDbEntity
  8
0
  6
Continuous
 62
     7
370
    15
100
AcDbLine
 10
225.1568957081
 20
130.8897762234
 30
0.0
 11
225.1297402045
 21
130.8996705945
 31
0.0
  0
LINE
  5
12A
330
1F
100
AcDbEntity
  8
0
  6
Continuous
 62
     7
370
    15
100
AcDbLine
 10
226.1843317038
 20
133.7083457644
 30
0.0
 11
225.1568957081
 21
130.8897762234
 31
0.0
  0
LINE
  5
12B
330
1F
100
AcDbEntity
  8
0
  6
Continuous
 62
     7
370
    15
100
AcDbLine
 10
225.1297402045
 20
134.0927584703
 30
0.0
 11
226.1843317038
 21
133.7083457644
 31
0.0
  0
LINE
  5
12C
330
1F
100
AcDbEntity
  8
0
  6
Continuous
 62
     7
370
    15
100
AcDbLine
 10
225.1297402045
 20
134.0927584703
 30
0.0
 11
225.1297402045
 21
147.5666119392
 31
0.0
  0
LINE
  5
12D
330
1F
100
AcDbEntity
  8
0
  6
Continuous
 62
     7
370
    15
100
AcDbLine
 10
232.2845793179
 20
149.158175164
 30
0.0
 11
226.7647933996
 21
151.5107555921
 31
0.0
  0
LINE
  5
12E
330
1F
100
AcDbEntity
  8
0
  6
Continuous
 62
     7
370
    15
100
AcDbLine
 10
233.4604373982
 20
151.9181235369
 30
0.0
 11
232.2845793179
 21
149.158175164
 31
0.0
  0
LINE
  5
12F
330
1F
100
AcDbEntity
  8
0
  6
Continuous
 62
     7
370
    15
100
AcDbLine
 10
227.9406514799
 20
154.270703965
 30
0.0
 11
233.4604373982
 21
151.9181235369
 31
0.0
  0
SPLINE
  5
130
330
1F
100
AcDbEntity
  8
0
  6
Continuous
 62
     7
370
    15
100
AcDbSpline
210
0.0
220
0.0
230
1.0
 70
     8
 71
     3
 72
     8
 73
     4
 74
     0
 42
0.00000001
 43
0.00000001
 12
1.0
 22
0.0
 32
0.0
 13
1.0
 23
0.0
 33
0.0
 40
0.0
 40
0.0
 40
0.0
 40
0.0
 40
4.756683720548233
 40
4.756683720548233
 40
4.756683720548233
 40
4.756683720548233
 10
229.8397460707357
 20
158.6317880836235
 30
0.0
 10
229.2023523125052
 20
157.1799845007174
 30
0.0
 10
228.5676328379351
 20
155.7270676418878
 30
0.0
 10
227.9406516540667
 20
154.2707049511633
 30
0.0
  0
LINE
  5
131
330
1F
100
AcDbEntity
  8
0
  6
Continuous
 62
     7
370
    15
100
AcDbLine
 10
239.6297409514
 20
158.6317895587
 30
0.0
 11
229.8397458008
 21
158.6317895587
 31
0.0
  0
LINE
  5
132
330
1F
100
AcDbEntity
  8
0
  6
Continuous
 62
     7
370
    15
100
AcDbLine
 10
239.6297409514
 20
152.6317848499
 30
0.0
 11
239.6297409514
 21
158.6317895587
 31
0.0
  0
LINE
  5
133
330
1F
100
AcDbEntity
  8
0
  6
Continuous
 62
     7
370
    15
100
AcDbLine
 10
242.6297409775
 20
152.6317848499
 30
0.0
 11
239.6297409514
 21
152.6317848499
 31
0.0
  0
LINE
  5
134
330
1F
100
AcDbEntity
  8
0
  6
Continuous
 62
     7
370
    15
100
AcDbLine
 10
242.6297409775
 20
158.6317895587
 30
0.0
 11
242.6297409775
 21
152.6317848499
 31
0.0
  0
LINE
  5
135
330
1F
100
AcDbEntity
  8
0
  6
Continuous
 62
     7
370
    15
100
AcDbLine
 10
252.4197361281
 20
158.6317895587
 30
0.0
 11
242.6297409775
 21
158.6317895587
 31
0.0
  0
SPLINE
  5
136
330
1F
100
AcDbEntity
  8
0
  6
Continuous
 62
     7
370
    15
100
AcDbSpline
210
0.0
220
0.0
230
1.0
 70
     8
 71
     3
 72
     8
 73
     4
 74
     0
 42
0.00000001
 43
0.00000001
 12
1.0
 22
0.0
 32
0.0
 13
1.0
 23
0.0
 33
0.0
 40
142.3093160053924
 40
142.3093160053924
 40
142.3093160053924
 40
142.3093160053924
 40
147.0659997259451
 40
147.0659997259451
 40
147.0659997259451
 40
147.0659997259451
 10
254.3188302749162
 20
154.270704951165
 30
0.0
 10
253.6918490910469
 20
155.7270676418906
 30
0.0
 10
253.0571296164759
 20
157.1799845007213
 30
0.0
 10
252.4197358582441
 20
158.6317880836288
 30
0.0
  0
LINE
  5
137
330
1F
100
AcDbEntity
  8
0
  6
Continuous
 62
     7
370
    15
100
AcDbLine
 10
248.7990445307
 20
151.9181235369
 30
0.0
 11
254.318830449
 21
154.270703965
 31
0.0
  0
LINE
  5
138
330
1F
100
AcDbEntity
  8
0
  6
Continuous
 62
     7
370
    15
100
AcDbLine
 10
249.9749026111
 20
149.158175164
 30
0.0
 11
248.7990445307
 21
151.9181235369
 31
0.0
  0
LINE
  5
139
330
1F
100
AcDbEntity
  8
0
  6
Continuous
 62
     7
370
    15
100
AcDbLine
 10
255.4946885294
 20
151.5107555921
 30
0.0
 11
249.9749026111
 21
149.158175164
 31
0.0
  0
SPLINE
  5
13A
330
1F
100
AcDbEntity
  8
0
  6
Continuous
 62
     7
370
    15
100
AcDbSpline
210
0.0
220
0.0
230
1.0
 70
     8
 71
     3
 72
     8
 73
     4
 74
     0
 42
0.00000001
 43
0.00000001
 12
1.0
 22
0.0
 32
0.0
 13
1.0
 23
0.0
 33
0.0
 40
135.0407870430574
 40
135.0407870430574
 40
135.0407870430574
 40
135.0407870430574
 40
139.3095470949886
 40
139.3095470949886
 40
139.3095470949886
 40
139.3095470949886
 10
257.129740964495
 20
147.5666128748024
 30
0.0
 10
256.5922638591754
 20
148.8845027154446
 30
0.0
 10
256.047239294045
 20
150.1992797265064
 30
0.0
 10
255.4946889008983
 20
151.5107554231275
 30
0.0
  0
LINE
  5
13B
330
1F
100
AcDbEntity
  8
0
  6
Continuous
 62
     7
370
    15
100
AcDbLine
 10
256.0751502252
 20
133.7083457644
 30
0.0
 11
257.1297417244
 21
134.0927584703
 31
0.0
  0
LINE
  5
13C
330
1F
100
AcDbEntity
  8
0
  6
Continuous
 62
     7
370
    15
100
AcDbLine
 10
257.1025862208
 20
130.8897762234
 30
0.0
 11
256.0751502252
 21
133.7083457644
 31
0.0
  0
LINE
  5
13D
330
1F
100
AcDbEntity
  8
0
  6
Continuous
 62
     7
370
    15
100
AcDbLine
 10
257.1297417244
 20
130.8996705945
 30
0.0
 11
257.1025862208
 21
130.8897762234
 31
0.0
  0
LINE
  5
13E
330
1F
100
AcDbEntity
  8
0
  6
Continuous
 62
     7
370
    15
100
AcDbLine
 10
257.1297417244
 20
130.8996705945
 30
0.0
 11
257.1297417244
 21
102.2482915457
 31
0.0
  0
LINE
  5
13F
330
1F
100
AcDbEntity
  8
0
  6
Continuous
 62
     7
370
    15
100
AcDbLine
 10
257.1297417244
 20
102.2482915457
 30
0.0
 11
259.1297401896
 21
102.2482915457
 31
0.0
  0
LINE
  5
140
330
1F
100
AcDbEntity
  8
0
  6
Continuous
 62
     7
370
    15
100
AcDbLine
 10
259.1297401896
 20
102.2482915457
 30
0.0
 11
259.1297401896
 21
131.6287024553
 31
0.0
  0
LINE
  5
141
330
1F
100
AcDbEntity
  8
0
  6
Continuous
 62
     7
370
    15
100
AcDbLine
 10
262.7397551051
 20
132.9446090992
 30
0.0
 11
259.1297401896
 21
131.6287024553
 31
0.0
  0
SPLINE
  5
142
330
1F
100
AcDbEntity
  8
0
  6
Continuous
 62
     7
370
    15
100
AcDbSpline
210
0.0
220
0.0
230
1.0
 70
     8
 71
     3
 72
     8
 73
     4
 74
     0
 42
0.00000001
 43
0.00000001
 12
1.0
 22
0.0
 32
0.0
 13
1.0
 23
0.0
 33
0.0
 40
7.75645263095208
 40
7.75645263095208
 40
7.75645263095208
 40
7.75645263095208
 40
12.02521268290807
 40
12.02521268290807
 40
12.02521268290807
 40
12.02521268290807
 10
226.7647930280855
 20
151.5107554231251
 30
0.0
 10
226.2122426349362
 20
150.1992797264962
 30
0.0
 10
225.6672180698034
 20
148.8845027154265
 30
0.0
 10
225.1297409644817
 20
147.5666128747764
 30
0.0
  0
LINE
  5
143
330
1F
100
AcDbEntity
  8
0
  6
Continuous
 62
     7
370
    15
100
AcDbLine
 10
257.1297417244
 20
147.5666119392
 30
0.0
 11
257.1297417244
 21
134.0927584703
 31
0.0
  0
ENDSEC
  0
SECTION
  2
OBJECTS
  0
DICTIONARY
  5
C
330
0
100
AcDbDictionary
281
     1
  3
ACAD_GROUP
350
D
  3
ACAD_LAYOUT
350
1A
  3
ACAD_MLINESTYLE
350
17
  3
ACAD_PLOTSETTINGS
350
19
  3
ACAD_PLOTSTYLENAME
350
E
  0
DICTIONARY
  5
D
102
{ACAD_REACTORS
330
C
102
}
330
C
100
AcDbDictionary
281
     1
  0
DICTIONARY
  5
1A
102
{ACAD_REACTORS
330
C
102
}
330
C
100
AcDbDictionary
281
     1
  3
Layout1
350
1E
  3
Layout2
350
26
  3
Model
350
22
  0
DICTIONARY
  5
17
102
{ACAD_REACTORS
330
C
102
}
330
C
100
AcDbDictionary
281
     1
  3
Standard
350
18
  0
DICTIONARY
  5
19
102
{ACAD_REACTORS
330
C
102
}
330
C
100
AcDbDictionary
281
     1
  0
ACDBDICTIONARYWDFLT
  5
E
102
{ACAD_REACTORS
330
C
102
}
330
C
100
AcDbDictionary
281
     1
  3
Normal
350
F
100
AcDbDictionaryWithDefault
340
F
  0
LAYOUT
  5
1E
102
{ACAD_REACTORS
330
1A
102
}
330
1A
100
AcDbPlotSettings
  1

  2
none_device
  4

  6

 40
0.0
 41
0.0
 42
0.0
 43
0.0
 44
0.0
 45
0.0
 46
0.0
 47
0.0
 48
0.0
 49
0.0
140
0.0
141
0.0
142
1.0
143
1.0
 70
   688
 72
     0
 73
     0
 74
     5
  7

 75
    16
147
1.0
148
0.0
149
0.0
100
AcDbLayout
  1
Layout1
 70
     1
 71
     1
 10
0.0
 20
0.0
 11
420.0
 21
297.0
 12
0.0
 22
0.0
 32
0.0
 14
1.0000000000E+20
 24
1.0000000000E+20
 34
1.0000000000E+20
 15
-1.0000000000E+20
 25
-1.0000000000E+20
 35
-1.0000000000E+20
146
0.0
 13
0.0
 23
0.0
 33
0.0
 16
1.0
 26
0.0
 36
0.0
 17
0.0
 27
1.0
 37
0.0
 76
     0
330
1B
  0
LAYOUT
  5
26
102
{ACAD_REACTORS
330
1A
102
}
330
1A
100
AcDbPlotSettings
  1

  2
none_device
  4

  6

 40
0.0
 41
0.0
 42
0.0
 43
0.0
 44
0.0
 45
0.0
 46
0.0
 47
0.0
 48
0.0
 49
0.0
140
0.0
141
0.0
142
1.0
143
1.0
 70
   688
 72
     0
 73
     0
 74
     5
  7

 75
    16
147
1.0
148
0.0
149
0.0
100
AcDbLayout
  1
Layout2
 70
     1
 71
     2
 10
0.0
 20
0.0
 11
0.0
 21
0.0
 12
0.0
 22
0.0
 32
0.0
 14
0.0
 24
0.0
 34
0.0
 15
0.0
 25
0.0
 35
0.0
146
0.0
 13
0.0
 23
0.0
 33
0.0
 16
1.0
 26
0.0
 36
0.0
 17
0.0
 27
1.0
 37
0.0
 76
     0
330
23
  0
LAYOUT
  5
22
102
{ACAD_REACTORS
330
1A
102
}
330
1A
100
AcDbPlotSettings
  1

  2
none_device
  4

  6

 40
0.0
 41
0.0
 42
0.0
 43
0.0
 44
0.0
 45
0.0
 46
0.0
 47
0.0
 48
0.0
 49
0.0
140
0.0
141
0.0
142
1.0
143
1.0
 70
  1712
 72
     0
 73
     0
 74
     0
  7

 75
     0
147
1.0
148
0.0
149
0.0
100
AcDbLayout
  1
Model
 70
     1
 71
     0
 10
0.0
 20
0.0
 11
297.0
 21
420.0
 12
0.0
 22
0.0
 32
0.0
 14
0.0
 24
0.0
 34
0.0
 15
297.0
 25
420.0
 35
0.0
146
0.0
 13
0.0
 23
0.0
 33
0.0
 16
1.0
 26
0.0
 36
0.0
 17
0.0
 27
1.0
 37
0.0
 76
     0
330
1F
331
29
  0
MLINESTYLE
  5
18
102
{ACAD_REACTORS
330
17
102
}
330
17
100
AcDbMlineStyle
  2
Standard
 70
     0
  3

 62
   256
 51
90.0
 52
90.0
 71
     2
 49
0.5
 62
   256
  6
BYLAYER
 49
-0.5
 62
   256
  6
BYLAYER
  0
ACDBPLACEHOLDER
  5
F
102
{ACAD_REACTORS
330
E
102
}
330
E
  0
ENDSEC
  0
EOF
